Вы используете незарегистрированную версию компонента "Вкладки"!

Поиск

(Free Jazz, Soul Note) Giovanni Falzone European Ensemble - Meeting in Paris - 2006, FLAC (tracks+.cue), lossless

(Free Jazz, Soul Note) Giovanni Falzone European Ensemble - Meeting in Paris - 2006, FLAC (tracks+.cue), lossless
Издатель (лейбл):
Треклист:
Giovanni Falzone European Ensemble / Meeting in Paris
Жанр: Free Jazz, Soul Note
Страна-производитель диска: Italy
Год издания: 2006
Издатель (лейбл): Soul Note
Номер по каталогу: 121438-2
Аудиокодек: FLAC (*.flac)
Тип рипа: tracks+.cue
Битрейт аудио: lossless
Продолжительность: 1:06:26
Источник (релизер): Max Monteiro
Наличие сканов в содержимом раздачи: нет
Треклист:
1. Rotation (8:39)
2. Three for One (8:24)
3. Veggente (9:19)
4. Miniature -3- (6:36)
5. Vite in piattaforma (9:53)
6. Pericoloso pensare (7:16)
7. Black Castle (6:40)
8. Machine-Man (dedicated to « Modern Times » by Charlie Chaplin) (9:38)
All compositions by Giovanni Falzone.
Recorded on February 2nd 2006 at Bopcity Studio, Paris.
Giovanni Falzone – Trumpet
Robin Verheyen – Tenor & Soprano Saxophones
Bruno Angelini – Piano
Mauro Gargano – Bass
Luc Isenmann – Drums
 
Лог создания рипа
Exact Audio Copy V1.0 beta 3 from 29. August 2011
EAC extraction logfile from 4. July 2013, 11:11
Giovanni Falzone European Ensemble / Meeting in Paris
Used drive : SlimtypeeNAU508 5 Adapter: 1 ID: 0
Read mode : Secure
Utilize accurate stream : Yes
Defeat audio cache : Yes
Make use of C2 pointers : No
Read offset correction : 6
Overread into Lead-In and Lead-Out : No
Fill up missing offset samples with silence : Yes
Delete leading and trailing silent blocks : No
Null samples used in CRC calculations : Yes
Used interface : Native Win32 interface for Win NT & 2000
Gap handling : Appended to previous track
Used output format : User Defined Encoder
Selected bitrate : 768 kBit/s
Quality : High
Add ID3 tag : No
Command line compressor : C:\Program Files (x86)\Exact Audio Copy\Flac\flac.exe
Additional command line options : -8 -V -T "ARTIST=%artist%" -T "TITLE=%title%" -T "ALBUM=%albumtitle%" -T "DATE=%year%" -T "TRACKNUMBER=%tracknr%" -T "GENRE=%genre%" -T "PERFORMER=%albuminterpret%" -T "COMPOSER=%composer%" %haslyrics%--tag-from-file=LYRICS="%lyricsfile%"%haslyrics% -T "ALBUMARTIST=%albumartist%" -T "DISCNUMBER=%cdnumber%" -T "TOTALDISCS=%totalcds%" -T "TOTALTRACKS=%numtracks%" -T "COMMENT=%comment%" %source% -o %dest%
TOC of the extracted CD
Track | Start | Length | Start sector | End sector
---------------------------------------------------------
1 | 0:00.00 | 8:39.34 | 0 | 38958
2 | 8:39.34 | 8:24.07 | 38959 | 76765
3 | 17:03.41 | 9:19.12 | 76766 | 118702
4 | 26:22.53 | 6:35.70 | 118703 | 148397
5 | 32:58.48 | 9:52.64 | 148398 | 192861
6 | 42:51.37 | 7:16.16 | 192862 | 225577
7 | 50:07.53 | 6:40.30 | 225578 | 255607
8 | 56:48.08 | 9:37.63 | 255608 | 298945
Track 1
Filename C:\EAC rips\01 - Rotation.wav
Pre-gap length 0:00:02.00
Peak level 99.8 %
Extraction speed 2.6 X
Track quality 100.0 %
Test CRC 34A8A5F6
Copy CRC 34A8A5F6
Track not present in AccurateRip database
Copy OK
Track 2
Filename C:\EAC rips\02 - Three for One.wav
Peak level 100.0 %
Extraction speed 3.1 X
Track quality 100.0 %
Test CRC 4FF9E082
Copy CRC 4FF9E082
Track not present in AccurateRip database
Copy OK
Track 3
Filename C:\EAC rips\03 - Veggente.wav
Peak level 100.0 %
Extraction speed 3.6 X
Track quality 100.0 %
Test CRC F2E701CD
Copy CRC F2E701CD
Track not present in AccurateRip database
Copy OK
Track 4
Filename C:\EAC rips\04 - Miniature -3-.wav
Peak level 99.1 %
Extraction speed 3.5 X
Track quality 100.0 %
Test CRC A603BAE3
Copy CRC A603BAE3
Track not present in AccurateRip database
Copy OK
Track 5
Filename C:\EAC rips\05 - Vite in piattaforma.wav
Peak level 100.0 %
Extraction speed 4.0 X
Track quality 100.0 %
Test CRC E61EA190
Copy CRC E61EA190
Track not present in AccurateRip database
Copy OK
Track 6
Filename C:\EAC rips\06 - Pericoloso pensare.wav
Peak level 100.0 %
Extraction speed 3.9 X
Track quality 99.9 %
Test CRC C55C216D
Copy CRC C55C216D
Track not present in AccurateRip database
Copy OK
Track 7
Filename C:\EAC rips\07 - Black Castle.wav
Peak level 100.0 %
Extraction speed 4.0 X
Track quality 99.9 %
Test CRC D042774A
Copy CRC D042774A
Track not present in AccurateRip database
Copy OK
Track 8
Filename C:\EAC rips\08 - Machine-Man.wav
Peak level 100.0 %
Extraction speed 3.9 X
Track quality 100.0 %
Test CRC 05EED70F
Copy CRC 05EED70F
Track not present in AccurateRip database
Copy OK
None of the tracks are present in the AccurateRip database
No errors occurred
End of status report
---- CUETools DB Plugin V2.1.4
[CTDB TOCID: RaVZhDKkL3mXmar3AOQQO0y5GLE-] disk not present in database
Submit result: RaVZhDKkL3mXmar3AOQQO0y5GLE- has been uploaded
==== Log checksum AEA8328D134AE49782141F6654E5DDC401E5E7C5B41C6341E104C641C8D1C80B ====
 
Содержание индексной карты (.CUE)
REM GENRE Jazz
REM DATE 2006
REM DISCID 5B0F9108
REM COMMENT "ExactAudioCopy v1.0b3"
PERFORMER "Giovanni Falzone European Ensemble"
TITLE "Meeting in Paris"
FILE "01 - Rotation.wav" WAVE
TRACK 01 AUDIO
TITLE "Rotation"
PERFORMER "Giovanni Falzone European Ensemble"
FLAGS DCP
INDEX 01 00:00:00
FILE "02 - Three for One.wav" WAVE
TRACK 02 AUDIO
TITLE "Three for One"
PERFORMER "Giovanni Falzone European Ensemble"
FLAGS DCP
INDEX 01 00:00:00
FILE "03 - Veggente.wav" WAVE
TRACK 03 AUDIO
TITLE "Veggente"
PERFORMER "Giovanni Falzone European Ensemble"
FLAGS DCP
INDEX 01 00:00:00
FILE "04 - Miniature -3-.wav" WAVE
TRACK 04 AUDIO
TITLE "Miniature -3-"
PERFORMER "Giovanni Falzone European Ensemble"
FLAGS DCP
INDEX 01 00:00:00
FILE "05 - Vite in piattaforma.wav" WAVE
TRACK 05 AUDIO
TITLE "Vite in piattaforma"
PERFORMER "Giovanni Falzone European Ensemble"
FLAGS DCP
INDEX 01 00:00:00
FILE "06 - Pericoloso pensare.wav" WAVE
TRACK 06 AUDIO
TITLE "Pericoloso pensare"
PERFORMER "Giovanni Falzone European Ensemble"
FLAGS DCP
INDEX 01 00:00:00
FILE "07 - Black Castle.wav" WAVE
TRACK 07 AUDIO
TITLE "Black Castle"
PERFORMER "Giovanni Falzone European Ensemble"
FLAGS DCP
INDEX 01 00:00:00
FILE "08 - Machine-Man.wav" WAVE
TRACK 08 AUDIO
TITLE "Machine-Man"
PERFORMER "Giovanni Falzone European Ensemble"
FLAGS DCP
INDEX 01 00:00:00
По всем вопросам пишите личное сообщение пользователю M0p94ok.
16:06
167
Нет комментариев. Ваш будет первым!