Вы используете незарегистрированную версию компонента "Вкладки"!

Поиск

(Free Jazz, Contemporary Jazz, Nine Winds) Trevor Anderies (w/ Brian Walsh, Gavin Templeton, Daniel Rosenboom) - Shades Of Truth - 2013, FLAC (tracks+.cue), lossless

(Free Jazz, Contemporary Jazz, Nine Winds) Trevor Anderies (w/ Brian Walsh, Gavin Templeton, Daniel Rosenboom) - Shades Of Truth - 2013, FLAC (tracks+.cue), lossless
Треклист:
Trevor Anderies / Shades Of Truth
Жанр: Free Jazz, Contemporary Jazz, Nine Winds
Страна-производитель диска: US
Год издания: 2013
Издатель (лейбл): 9 Winds Records
Номер по каталогу:
Страна: US
Аудиокодек: FLAC (*.flac)
Тип рипа: tracks+.cue
Битрейт аудио: lossless
Продолжительность: 73:38
Источник (релизер): свой фирменный диск
Наличие сканов в содержимом раздачи:
Треклист:
1. Attainment
2. Shades Of Truth
3. Thunder
4. Vermillion
5. Three-Four Vs. Six-Eight Four-Four Ways
6. Aren't You So Lovely
7. Clear Eyes Of The Moon
8. Lenny
9. Wild Ox Moan
 
Лог создания рипа
Exact Audio Copy V1.0 beta 3 from 29. August 2011
EAC extraction logfile from 13. July 2013, 20:12
Trevor Anderies / Shades Of Truth
Used drive : PIONEER DVD-RW DVR-115D Adapter: 0 ID: 0
Read mode : Secure
Utilize accurate stream : Yes
Defeat audio cache : Yes
Make use of C2 pointers : No
Read offset correction : 48
Overread into Lead-In and Lead-Out : No
Fill up missing offset samples with silence : Yes
Delete leading and trailing silent blocks : No
Null samples used in CRC calculations : Yes
Used interface : Installed external ASPI interface
Gap handling : Appended to previous track
Used output format : User Defined Encoder
Selected bitrate : 896 kBit/s
Quality : High
Add ID3 tag : No
Command line compressor : C:\Program Files\Exact Audio Copy\FLAC\FLAC.EXE
Additional command line options : -6 -V -T "ARTIST=%artist%" -T "TITLE=%title%" -T "ALBUM=%albumtitle%" -T "DATE=%year%" -T "TRACKNUMBER=%tracknr%" -T "GENRE=%genre%" -T "COMMENT=%comment%" -T "BAND=%albuminterpret%" -T "COMPOSER=%composer%" %haslyrics%--tag-from-file=LYRICS="%lyricsfile%"%haslyrics% -T "DISCNUMBER=%cdnumber%" -T "TOTALDISCS=%totalcds%" -T "TOTALTRACKS=%numtracks%" %hascover%--picture="%coverfile%"%hascover% %source% -o %dest%
TOC of the extracted CD
Track | Start | Length | Start sector | End sector
---------------------------------------------------------
1 | 0:00.00 | 8:22.09 | 0 | 37658
2 | 8:22.09 | 6:18.59 | 37659 | 66067
3 | 14:40.68 | 8:35.17 | 66068 | 104709
4 | 23:16.10 | 7:52.03 | 104710 | 140112
5 | 31:08.13 | 8:46.53 | 140113 | 179615
6 | 39:54.66 | 6:41.25 | 179616 | 209715
7 | 46:36.16 | 6:48.71 | 209716 | 240386
8 | 53:25.12 | 13:34.22 | 240387 | 301458
9 | 66:59.34 | 6:39.20 | 301459 | 331403
Track 1
Filename D:\zzz\01 - Attainment.wav
Pre-gap length 0:00:02.00
Peak level 98.9 %
Extraction speed 5.4 X
Track quality 100.0 %
Test CRC B6CC5333
Copy CRC B6CC5333
Track not present in AccurateRip database
Copy OK
Track 2
Filename D:\zzz\02 - Shades Of Truth.wav
Pre-gap length 0:00:01.00
Peak level 99.0 %
Extraction speed 5.6 X
Track quality 99.9 %
Test CRC AA02D318
Copy CRC AA02D318
Track not present in AccurateRip database
Copy OK
Track 3
Filename D:\zzz\03 - Thunder.wav
Pre-gap length 0:00:02.00
Peak level 98.8 %
Extraction speed 6.4 X
Track quality 99.9 %
Test CRC 98EE18BD
Copy CRC 98EE18BD
Track not present in AccurateRip database
Copy OK
Track 4
Filename D:\zzz\04 - Vermillion.wav
Pre-gap length 0:00:01.00
Peak level 98.9 %
Extraction speed 7.4 X
Track quality 100.0 %
Test CRC 0813D6F8
Copy CRC 0813D6F8
Track not present in AccurateRip database
Copy OK
Track 5
Filename D:\zzz\05 - Three-Four Vs. Six-Eight Four- Four Ways.wav
Pre-gap length 0:00:01.30
Peak level 98.9 %
Extraction speed 8.0 X
Track quality 100.0 %
Test CRC 32CE7B66
Copy CRC 32CE7B66
Track not present in AccurateRip database
Copy OK
Track 6
Filename D:\zzz\06 - Aren't You So Lovely.wav
Pre-gap length 0:00:02.00
Peak level 98.8 %
Extraction speed 8.3 X
Track quality 100.0 %
Test CRC EEDCCFFF
Copy CRC EEDCCFFF
Track not present in AccurateRip database
Copy OK
Track 7
Filename D:\zzz\07 - Clear Eyes Of The Moon.wav
Peak level 98.8 %
Extraction speed 8.7 X
Track quality 100.0 %
Test CRC DCC3B8AF
Copy CRC DCC3B8AF
Track not present in AccurateRip database
Copy OK
Track 8
Filename D:\zzz\08 - Lenny.wav
Pre-gap length 0:00:00.30
Peak level 98.9 %
Extraction speed 9.6 X
Track quality 100.0 %
Test CRC 067DA54C
Copy CRC 067DA54C
Track not present in AccurateRip database
Copy OK
Track 9
Filename D:\zzz\09 - Wild Ox Moan.wav
Pre-gap length 0:00:02.00
Peak level 98.8 %
Extraction speed 9.6 X
Track quality 100.0 %
Test CRC DFC294AE
Copy CRC DFC294AE
Track not present in AccurateRip database
Copy OK
None of the tracks are present in the AccurateRip database
No errors occurred
End of status report
==== Log checksum 1184FE0B16BD576B9E1D7C0E539311300362AE174A33AEDD64EE02E14727179F ====
 
Содержание индексной карты (.CUE)
REM GENRE "Avant-Garde Jazz"
REM DATE 2012
REM DISCID 83114209
REM COMMENT "ExactAudioCopy v1.0b3"
PERFORMER "Trevor Anderies"
TITLE "Shades Of Truth"
FILE "01 - Attainment.wav" WAVE
TRACK 01 AUDIO
TITLE "Attainment"
PERFORMER "Trevor Anderies"
FLAGS DCP
INDEX 01 00:00:00
TRACK 02 AUDIO
TITLE "Shades Of Truth"
PERFORMER "Trevor Anderies"
FLAGS DCP
INDEX 00 08:21:09
FILE "02 - Shades Of Truth.wav" WAVE
INDEX 01 00:00:00
TRACK 03 AUDIO
TITLE "Thunder"
PERFORMER "Trevor Anderies"
FLAGS DCP
INDEX 00 06:16:59
FILE "03 - Thunder.wav" WAVE
INDEX 01 00:00:00
TRACK 04 AUDIO
TITLE "Vermillion"
PERFORMER "Trevor Anderies"
FLAGS DCP
INDEX 00 08:34:17
FILE "04 - Vermillion.wav" WAVE
INDEX 01 00:00:00
TRACK 05 AUDIO
TITLE "Three-Four Vs. Six-Eight Four- Four Ways"
PERFORMER "Trevor Anderies"
FLAGS DCP
INDEX 00 07:50:48
FILE "05 - Three-Four Vs. Six-Eight Four- Four Ways.wav" WAVE
INDEX 01 00:00:00
TRACK 06 AUDIO
TITLE "Aren't You So Lovely"
PERFORMER "Trevor Anderies"
FLAGS DCP
INDEX 00 08:44:53
FILE "06 - Aren't You So Lovely.wav" WAVE
INDEX 01 00:00:00
FILE "07 - Clear Eyes Of The Moon.wav" WAVE
TRACK 07 AUDIO
TITLE "Clear Eyes Of The Moon"
PERFORMER "Trevor Anderies"
FLAGS DCP
INDEX 01 00:00:00
TRACK 08 AUDIO
TITLE "Lenny"
PERFORMER "Trevor Anderies"
FLAGS DCP
INDEX 00 06:48:41
FILE "08 - Lenny.wav" WAVE
INDEX 01 00:00:00
TRACK 09 AUDIO
TITLE "Wild Ox Moan "
PERFORMER "Trevor Anderies"
FLAGS DCP
INDEX 00 13:32:22
FILE "09 - Wild Ox Moan.wav" WAVE
INDEX 01 00:00:00
 
Лог проверки качества
d:\>d:\aucdtect -d/-m0 d:\zzz\*.wav
auCDtect: CD records authenticity detector, version 0.8.2
Copyright (c) 2004 Oleg Berngardt. All rights reserved.
Copyright (c) 2004 Alexander Djourik. All rights reserved.
------------------------------------------------------------
Processing file: [01. Attainment.wav]
------------------------------------------------------------
This track looks like CDDA with probability 100%
------------------------------------------------------------
Processing file: [02. Shades Of Truth.wav]
------------------------------------------------------------
This track looks like CDDA with probability 100%
------------------------------------------------------------
Processing file: [03. Thunder.wav]
------------------------------------------------------------
This track looks like CDDA with probability 100%
------------------------------------------------------------
Processing file: [04. Vermillion.wav]
------------------------------------------------------------
This track looks like CDDA with probability 100%
------------------------------------------------------------
Processing file: [05. Three-Four Vs. Six-Eight Four- Four Ways.wav]
------------------------------------------------------------
This track looks like CDDA with probability 100%
------------------------------------------------------------
Processing file: [06. Aren't You So Lovely.wav]
------------------------------------------------------------
This track looks like CDDA with probability 100%
------------------------------------------------------------
Processing file: [07. Clear Eyes Of The Moon.wav]
------------------------------------------------------------
This track looks like CDDA with probability 100%
------------------------------------------------------------
Processing file: [08. Lenny.wav]
------------------------------------------------------------
This track looks like CDDA with probability 99%
------------------------------------------------------------
Processing file: [09. Wild Ox Moan .wav]
------------------------------------------------------------
This track looks like CDDA with probability 100%
------------------------------------------------------------
Final Conclusion:
------------------------------------------------------------
These tracks looks like CDDA with probability 100%
Доп. информация:
 
Album Info & Review
Recorded by John Baffa at Firehouse Recording Studios in Pasadena, California
Mixed & mastered by John Baffa at TV Tray Studio
All tracks composed by Trevor Anderies except 5. by Hasaan Ibn Ali and 9. by Vera Hall
Design by Sid M. Duenas
“At a time when the sounds heard most often are merely stale copies of the past, Shades of Truth by talented composer/drummer Trevor Anderies is truly a welcome breeze of fresh air. It's young musicians like Trevor and his brilliant ensemble, who are bringing forth the highly creative, exciting and innovative improvisations of the 21st century. This outstanding project proves that modern American music, is absolutely in great hands." - Legendary saxophonist/multi-reedist Bennie Maupin
Shades of Truth (available on May 21, 2013), the debut album from L.A. based drummer/composer Trevor Anderies is a reflection of this artist's musical and spiritual journeys. In bringing together his closest colleagues, a deep sense of trust and comfort is created while they weave through each of these nine unique compositions. This album purposefully and naturally blurs lines of genre, taking influence from avant-garde, hard-bop, classical, soul, and the blues, seeking to create an exciting sound all its own. Producing a deep sense of spirituality, the music gives listeners an honest look into an artist whose main intention is to use music as a healing force, and to encourage listeners to reach deeper into their own lives to find the hidden gems within themselves. Shades of Truth promises to introduce drummer/composer Trevor Anderies as an exceptional drummer and composer who will be on our radar for years to come.
On Shades of Truth Anderies surrounds himself with musicians who are collaborators, bandmates (in the band Slumgum), players that are near and dear to his musical heart, and artists that have admirable resumes: vocalist Dwight Trible (Pharaoh Sanders, Billy Higgins, Horace Tapscott's Pan African Peoples' Arkestra, Charles Lloyd, Billy Childs, Kenny Burrell, Kenny Garrett, Steve Turre, Harold Land, Harry Belafonte, Patrice Rushen, Babatunde Lea, Ernie Watts, Kahlil El Zabar, as well as contemporary soul artists like LA Reid and DJ Rogers); tenor saxophonist Jonathan Armstrong (Slumgum, Vinny Golia, Bennie Maupin, Butch Morris, Hugh Ragin); alto saxophonist and flutist Gavin Templeton (Vinny Golia, Charlie Haden, Joshua White, Nels Cline, Joe La Barbera, Larry Koonse, Darek Oles, Butch Morris, Peter Epstein, daKAH Hip Hop Orchestra, The Temptations, Wayne Newton); bass clarinetist Brian Walsh (Peter Maxwell Davies, Bobby Bradford, Nels Cline, Larry Koonse, Muhal Richard Abrams, the Henry Mancini Orchestra, the Riverside Philharmonic); pianist Rory Cowal (Slumgum, Hugh Ragin, Bennie Maupin, Butch Morris, Premasoul); trumpeter Daniel Rosenboom (Vinny Golia, Los Angeles Philharmonic New Music Group, Southwest Chamber Music, Long Beach Opera, Wadada Leo Smith, Miroslav Tadic, Markus Stockhausen); and bassist David Tranchina (Slumgum, Hugh Ragin, Bennie Maupin, Nate Wood, Bobby Watson, Mike Barone, Butch Morris, Vinny Golia, Larry Koonse, Joe La Barbera).
 
Состав
Trevor Anderies: drums
Dwight Trible: vocals
Jonathan Armstrong: tenor saxophone
Gavin Templeton: alto saxophone & flute
Brian Walsh: bass clarinet
Daniel Rosenboom: trumpet
Rory Cowal: piano
David Tranchina: bass
По всем вопросам пишите личное сообщение пользователю M0p94ok.
16:05
178
Нет комментариев. Ваш будет первым!