Вы используете незарегистрированную версию компонента "Вкладки"!

Поиск

(Free Jazz, Contemorary Jazz, pFMENTUM) Dan Clucas Immediately - Exile - 2005, FLAC (tracks+.cue), lossless

(Free Jazz, Contemorary Jazz, pFMENTUM) Dan Clucas Immediately - Exile - 2005, FLAC (tracks+.cue), lossless
Треклист:
Dan Clucas Immediately / Exile
Жанр: Free Jazz, Contemorary Jazz, pFMENTUM
Страна-производитель диска: US
Год издания: 2005
Издатель (лейбл): pfMENTUM
Номер по каталогу: CD028
Страна: US
Аудиокодек: FLAC (*.flac)
Тип рипа: tracks+.cue
Битрейт аудио: lossless
Продолжительность: 47:05
Источник (релизер): свой фирменный диск
Наличие сканов в содержимом раздачи:
Треклист:
1 Stating The Obvious 7:16
2 You Say (For Bobby Bradford) 7:14
3 Exile (For Astor Piazzolla) 8:11
4 The Black Horn (For John Carter) 11:26
5 Mothers And Daughters 4:24
6 Wheat And Weeds 8:22
 
Лог создания рипа
Exact Audio Copy V1.0 beta 3 from 29. August 2011
EAC extraction logfile from 13. July 2013, 19:47
Dan Clucas & Immediately / Exile
Used drive : PIONEER DVD-RW DVR-115D Adapter: 0 ID: 0
Read mode : Secure
Utilize accurate stream : Yes
Defeat audio cache : Yes
Make use of C2 pointers : No
Read offset correction : 48
Overread into Lead-In and Lead-Out : No
Fill up missing offset samples with silence : Yes
Delete leading and trailing silent blocks : No
Null samples used in CRC calculations : Yes
Used interface : Installed external ASPI interface
Gap handling : Appended to previous track
Used output format : User Defined Encoder
Selected bitrate : 896 kBit/s
Quality : High
Add ID3 tag : No
Command line compressor : C:\Program Files\Exact Audio Copy\FLAC\FLAC.EXE
Additional command line options : -6 -V -T "ARTIST=%artist%" -T "TITLE=%title%" -T "ALBUM=%albumtitle%" -T "DATE=%year%" -T "TRACKNUMBER=%tracknr%" -T "GENRE=%genre%" -T "COMMENT=%comment%" -T "BAND=%albuminterpret%" -T "COMPOSER=%composer%" %haslyrics%--tag-from-file=LYRICS="%lyricsfile%"%haslyrics% -T "DISCNUMBER=%cdnumber%" -T "TOTALDISCS=%totalcds%" -T "TOTALTRACKS=%numtracks%" %hascover%--picture="%coverfile%"%hascover% %source% -o %dest%
TOC of the extracted CD
Track | Start | Length | Start sector | End sector
---------------------------------------------------------
1 | 0:00.00 | 7:18.25 | 0 | 32874
2 | 7:18.25 | 7:15.39 | 32875 | 65538
3 | 14:33.64 | 8:14.23 | 65539 | 102611
4 | 22:48.12 | 11:29.33 | 102612 | 154319
5 | 34:17.45 | 4:26.17 | 154320 | 174286
6 | 38:43.62 | 8:22.12 | 174287 | 211948
Track 1
Filename D:\zzz\01 - Stating The Obvious.wav
Pre-gap length 0:00:02.00
Peak level 96.6 %
Extraction speed 5.0 X
Track quality 100.0 %
Test CRC 2B48E368
Copy CRC 2B48E368
Track not present in AccurateRip database
Copy OK
Track 2
Filename D:\zzz\02 - You Say (For Bobby Bradford).wav
Pre-gap length 0:00:02.00
Peak level 96.6 %
Extraction speed 5.8 X
Track quality 100.0 %
Test CRC C4C388C6
Copy CRC C4C388C6
Track not present in AccurateRip database
Copy OK
Track 3
Filename D:\zzz\03 - Exile (For Astor Piazzolla).wav
Pre-gap length 0:00:02.00
Peak level 96.6 %
Extraction speed 6.1 X
Track quality 99.9 %
Test CRC D5F1A095
Copy CRC D5F1A095
Track not present in AccurateRip database
Copy OK
Track 4
Filename D:\zzz\04 - The Black Horn (For John Carter).wav
Pre-gap length 0:00:03.00
Peak level 72.2 %
Extraction speed 7.1 X
Track quality 99.9 %
Test CRC 971DA727
Copy CRC 971DA727
Track not present in AccurateRip database
Copy OK
Track 5
Filename D:\zzz\05 - Mothers And Daughters.wav
Pre-gap length 0:00:03.00
Peak level 96.6 %
Extraction speed 6.6 X
Track quality 99.9 %
Test CRC 2D04192D
Copy CRC 2D04192D
Track not present in AccurateRip database
Copy OK
Track 6
Filename D:\zzz\06 - Wheat And Weeds.wav
Pre-gap length 0:00:02.00
Peak level 96.6 %
Extraction speed 8.2 X
Track quality 100.0 %
Test CRC 6A2FB0C5
Copy CRC 6A2FB0C5
Track not present in AccurateRip database
Copy OK
None of the tracks are present in the AccurateRip database
No errors occurred
End of status report
==== Log checksum 6C22E45C426ED7E1EB4090871A291CB7D49DD4D8AC1BE1653781508DC128CE8C ====
 
Содержание индексной карты (.CUE)
REM GENRE "Avant-Garde Jazz"
REM DATE 2005
REM DISCID 450B0906
REM COMMENT "ExactAudioCopy v1.0b3"
PERFORMER "Dan Clucas & Immediately"
TITLE "Exile"
FILE "01 - Stating The Obvious.wav" WAVE
TRACK 01 AUDIO
TITLE "Stating The Obvious"
PERFORMER "Dan Clucas & Immediately"
INDEX 01 00:00:00
TRACK 02 AUDIO
TITLE "You Say (For Bobby Bradford)"
PERFORMER "Dan Clucas & Immediately"
INDEX 00 07:16:25
FILE "02 - You Say (For Bobby Bradford).wav" WAVE
INDEX 01 00:00:00
TRACK 03 AUDIO
TITLE "Exile (For Astor Piazzolla)"
PERFORMER "Dan Clucas & Immediately"
INDEX 00 07:13:39
FILE "03 - Exile (For Astor Piazzolla).wav" WAVE
INDEX 01 00:00:00
TRACK 04 AUDIO
TITLE "The Black Horn (For John Carter)"
PERFORMER "Dan Clucas & Immediately"
INDEX 00 08:11:23
FILE "04 - The Black Horn (For John Carter).wav" WAVE
INDEX 01 00:00:00
TRACK 05 AUDIO
TITLE "Mothers And Daughters"
PERFORMER "Dan Clucas & Immediately"
INDEX 00 11:26:33
FILE "05 - Mothers And Daughters.wav" WAVE
INDEX 01 00:00:00
TRACK 06 AUDIO
TITLE "Wheat And Weeds"
PERFORMER "Dan Clucas & Immediately"
INDEX 00 04:24:17
FILE "06 - Wheat And Weeds.wav" WAVE
INDEX 01 00:00:00
 
Лог проверки качества
d:\>d:\aucdtect -d/-m0 d:\zzz\*.wav
auCDtect: CD records authenticity detector, version 0.8.2
Copyright (c) 2004 Oleg Berngardt. All rights reserved.
Copyright (c) 2004 Alexander Djourik. All rights reserved.
------------------------------------------------------------
Processing file: [01. Stating The Obvious.wav]
------------------------------------------------------------
This track looks like CDDA with probability 99%
------------------------------------------------------------
Processing file: [02. You Say (For Bobby Bradford).wav]
------------------------------------------------------------
This track looks like CDDA with probability 100%
------------------------------------------------------------
Processing file: [03. Exile (For Astor Piazzolla).wav]
------------------------------------------------------------
This track looks like CDDA with probability 100%
------------------------------------------------------------
Processing file: [04. The Black Horn (For John Carter).wav]
------------------------------------------------------------
This track looks like CDDA with probability 100%
------------------------------------------------------------
Processing file: [05. Mothers And Daughters.wav]
------------------------------------------------------------
This track looks like CDDA with probability 99%
------------------------------------------------------------
Processing file: [06. Wheat And Weeds.wav]
------------------------------------------------------------
This track looks like CDDA with probability 100%
------------------------------------------------------------
Final Conclusion:
------------------------------------------------------------
These tracks looks like CDDA with probability 100%
Доп. информация:
 
Album Info & AAJ Review
Recorded 11/25/02
Mixed at Catasonic Studios, Echo Park, Los Angeles, CA
Mastered at Newzone Studio, Los Angeles, CA
Cornetist and composer Dan Clucas has been active on the Los Angeles scene for the last fifteen years, but is only now releasing his debut recording. Clucas has recorded with Jeff Kaiser's Ockodektet and Harris Eisenstadt's Ahimsa Orchestra and has performed with Vinny Golia, Nels Cline and Steuart Liebig and Henry Grimes; he also leads another group, Dead Air. His bandmates in Immediately, except for drummer Rich West, are relatively unknown, but they do deliver a strong and compelling statement which left me waiting eagerly for Clucas' future recordings.
Clucas explains in his liner notes that Exile was born as his "sense of exile, encouraged by the events of the world, started to get the better of me," and it's equally inspired by poet Allen Ginsberg's words that "the imagination—it represents a futile gesture in the USA—and yet the heart lives on it." Immediately was Clucas' medicine for his sense of alienation, and indeed, the music on Exile lives up to the band's name—up front, urgent and risk taking, while honoring other daring musicians.
Exile begins with the rhythmic "Stating the Obvious," which sets the tone for the disc. Clucas has a convincing, tough tone, which is intensified by Brian Walsh on the clarinet and the tenor sax. Noah Phillips' unsettling and manipulated guitar adds to the chaos, bassist Michael Ibarra safely anchors the sonic mayhem, and drummer Rich West colors the dense textures with inventive fractured patterns. All contribute to the tight interplay.
A series of dedications follows with "You Say," for conrnetist Bobby Bradford, which owes much to Ornette Coleman; "Exile," for nuevo tango master Astor Piazzolla—a kind of imaginary violent tango that Clucas keeps boiling to the end; and the folksy "The Black Horn," for John Carter, the most tender piece on this release, with Clucas' muted cornet in the back coloring Phillips' atmospheric lines.
The short "Mothers and Daughters" marks the return to a funky rhythm, and the march-like "Wheat and Weeds," with glimpses of an Americana guitar playing by Phillips, concludes the disc. As on other pieces, it sound as if Clucas is about to lose control of his bandmates, but his assured playing always brings them to a safe haven.
A brilliant release.
 
Состав
Clarinet, Tenor Saxophone – Brian Walsh
Contrabass – Michael Ibarra
Cornet, Composed By – Dan Clucas
Drums – Rich West
Guitar – Noah Phillips
По всем вопросам пишите личное сообщение пользователю M0p94ok.
16:04
169
Нет комментариев. Ваш будет первым!