Вы используете незарегистрированную версию компонента "Вкладки"!

Поиск

(Avant-Garde Jazz, Modern Composition, pfMENTUM) Kris Tiner, Noah Phillips, Sara Schoenbeck Trio - Breathe In, Feed Out - 2004, FLAC (tracks+.cue), lossless

(Avant-Garde Jazz, Modern Composition, pfMENTUM) Kris Tiner, Noah Phillips, Sara Schoenbeck Trio - Breathe In, Feed Out - 2004, FLAC (tracks+.cue), lossless
Треклист:
Kris Tiner, Noah Phillips, Sara Schoenbeck Trio / Breathe In, Feed Out
Жанр: Avant-Garde Jazz, Modern Composition, pfMENTUM
Страна-производитель диска: US
Год издания: 2004
Издатель (лейбл): pfMENTUM
Номер по каталогу: CD014
Страна: US
Аудиокодек: FLAC (*.flac)
Тип рипа: tracks+.cue
Битрейт аудио: lossless
Продолжительность: 55:08
Источник (релизер): свой фирменный диск
Наличие сканов в содержимом раздачи:
Треклист:
1 Skujellifeddy (McGranehan) 6:31
2 A Wind Shift 4:54
3 Clocks And Maps 6:52
4 Like Red Flowers 9:38
5 Winddrone, Water Drying 2:35
6 Road From Kumasi 9:25
7 In This Dull City 2:42
8 They Mistook Time For Line 3:04
9 Metal Skin 2:36
10 Force A Smooth Thing 6:48
 
Лог создания рипа
Exact Audio Copy V1.0 beta 3 from 29. August 2011
EAC extraction logfile from 13. July 2013, 18:21
Tiner - Phillips - Schoenbeck Trio / Breathe In, Feed Out
Used drive : PIONEER DVD-RW DVR-115D Adapter: 0 ID: 0
Read mode : Secure
Utilize accurate stream : Yes
Defeat audio cache : Yes
Make use of C2 pointers : No
Read offset correction : 48
Overread into Lead-In and Lead-Out : No
Fill up missing offset samples with silence : Yes
Delete leading and trailing silent blocks : No
Null samples used in CRC calculations : Yes
Used interface : Installed external ASPI interface
Gap handling : Appended to previous track
Used output format : User Defined Encoder
Selected bitrate : 896 kBit/s
Quality : High
Add ID3 tag : No
Command line compressor : C:\Program Files\Exact Audio Copy\FLAC\FLAC.EXE
Additional command line options : -6 -V -T "ARTIST=%artist%" -T "TITLE=%title%" -T "ALBUM=%albumtitle%" -T "DATE=%year%" -T "TRACKNUMBER=%tracknr%" -T "GENRE=%genre%" -T "COMMENT=%comment%" -T "BAND=%albuminterpret%" -T "COMPOSER=%composer%" %haslyrics%--tag-from-file=LYRICS="%lyricsfile%"%haslyrics% -T "DISCNUMBER=%cdnumber%" -T "TOTALDISCS=%totalcds%" -T "TOTALTRACKS=%numtracks%" %hascover%--picture="%coverfile%"%hascover% %source% -o %dest%
TOC of the extracted CD
Track | Start | Length | Start sector | End sector
---------------------------------------------------------
1 | 0:00.00 | 6:31.47 | 0 | 29371
2 | 6:31.47 | 4:54.62 | 29372 | 51483
3 | 11:26.34 | 6:52.28 | 51484 | 82411
4 | 18:18.62 | 9:38.03 | 82412 | 125764
5 | 27:56.65 | 2:35.24 | 125765 | 137413
6 | 30:32.14 | 9:25.39 | 137414 | 179827
7 | 39:57.53 | 2:42.32 | 179828 | 192009
8 | 42:40.10 | 3:04.44 | 192010 | 205853
9 | 45:44.54 | 2:36.02 | 205854 | 217555
10 | 48:20.56 | 6:48.04 | 217556 | 248159
Track 1
Filename D:\zzz\01 - Skujellifeddy (McGranehan).wav
Pre-gap length 0:00:02.00
Peak level 98.2 %
Extraction speed 4.7 X
Track quality 100.0 %
Test CRC 6459FCDA
Copy CRC 6459FCDA
Track not present in AccurateRip database
Copy OK
Track 2
Filename D:\zzz\02 - A Wind Shift.wav
Pre-gap length 0:00:02.00
Peak level 97.1 %
Extraction speed 4.7 X
Track quality 99.9 %
Test CRC 902679FB
Copy CRC 902679FB
Track not present in AccurateRip database
Copy OK
Track 3
Filename D:\zzz\03 - Clock And Maps.wav
Pre-gap length 0:00:02.00
Peak level 97.1 %
Extraction speed 5.9 X
Track quality 100.0 %
Test CRC 1E5BD7AF
Copy CRC 1E5BD7AF
Track not present in AccurateRip database
Copy OK
Track 4
Filename D:\zzz\04 - Like Red Flowers.wav
Pre-gap length 0:00:02.00
Peak level 97.1 %
Extraction speed 6.4 X
Track quality 99.9 %
Test CRC 13EE29BB
Copy CRC 13EE29BB
Track not present in AccurateRip database
Copy OK
Track 5
Filename D:\zzz\05 - Winddrone, Water Drying.wav
Pre-gap length 0:00:02.00
Peak level 97.3 %
Extraction speed 6.2 X
Track quality 100.0 %
Test CRC 6F8556B4
Copy CRC 6F8556B4
Track not present in AccurateRip database
Copy OK
Track 6
Filename D:\zzz\06 - Road From Kumasi.wav
Pre-gap length 0:00:02.00
Peak level 92.8 %
Extraction speed 7.2 X
Track quality 99.9 %
Test CRC 0130AE28
Copy CRC 0130AE28
Track not present in AccurateRip database
Copy OK
Track 7
Filename D:\zzz\07 - In This Dull City.wav
Pre-gap length 0:00:02.00
Peak level 97.5 %
Extraction speed 6.9 X
Track quality 100.0 %
Test CRC E926A970
Copy CRC E926A970
Track not present in AccurateRip database
Copy OK
Track 8
Filename D:\zzz\08 - They Mistook Time For Line.wav
Pre-gap length 0:00:02.00
Peak level 70.4 %
Extraction speed 6.2 X
Track quality 99.9 %
Test CRC A36C2656
Copy CRC A36C2656
Track not present in AccurateRip database
Copy OK
Track 9
Filename D:\zzz\09 - Metal Skin.wav
Pre-gap length 0:00:02.00
Peak level 97.9 %
Extraction speed 6.0 X
Track quality 99.9 %
Test CRC 8F44C470
Copy CRC 8F44C470
Track not present in AccurateRip database
Copy OK
Track 10
Filename D:\zzz\10 - Force A Smooth Thing.wav
Pre-gap length 0:00:02.00
Peak level 96.8 %
Extraction speed 7.7 X
Track quality 99.9 %
Test CRC 5999A678
Copy CRC 5999A678
Track not present in AccurateRip database
Copy OK
None of the tracks are present in the AccurateRip database
No errors occurred
End of status report
==== Log checksum A854F73D25B4FFD947918731A7B31FF838474E802E0384A5C8DFD95DDF13D4E3 ====
 
Содержание индексной карты (.CUE)
REM GENRE "Avant-Garde Jazz"
REM DATE 2004
REM DISCID 950CEC0A
REM COMMENT "ExactAudioCopy v1.0b3"
PERFORMER "Tiner - Phillips - Schoenbeck Trio"
TITLE "Breathe In, Feed Out"
FILE "01 - Skujellifeddy (McGranehan).wav" WAVE
TRACK 01 AUDIO
TITLE "Skujellifeddy (McGranehan)"
PERFORMER "Tiner - Phillips - Schoenbeck Trio"
INDEX 01 00:00:00
TRACK 02 AUDIO
TITLE "A Wind Shift"
PERFORMER "Tiner - Phillips - Schoenbeck Trio"
INDEX 00 06:29:47
FILE "02 - A Wind Shift.wav" WAVE
INDEX 01 00:00:00
TRACK 03 AUDIO
TITLE "Clock And Maps"
PERFORMER "Tiner - Phillips - Schoenbeck Trio"
INDEX 00 04:52:62
FILE "03 - Clock And Maps.wav" WAVE
INDEX 01 00:00:00
TRACK 04 AUDIO
TITLE "Like Red Flowers"
PERFORMER "Tiner - Phillips - Schoenbeck Trio"
INDEX 00 06:50:28
FILE "04 - Like Red Flowers.wav" WAVE
INDEX 01 00:00:00
TRACK 05 AUDIO
TITLE "Winddrone, Water Drying"
PERFORMER "Tiner - Phillips - Schoenbeck Trio"
INDEX 00 09:36:03
FILE "05 - Winddrone, Water Drying.wav" WAVE
INDEX 01 00:00:00
TRACK 06 AUDIO
TITLE "Road From Kumasi"
PERFORMER "Tiner - Phillips - Schoenbeck Trio"
INDEX 00 02:33:24
FILE "06 - Road From Kumasi.wav" WAVE
INDEX 01 00:00:00
TRACK 07 AUDIO
TITLE "In This Dull City"
PERFORMER "Tiner - Phillips - Schoenbeck Trio"
INDEX 00 09:23:39
FILE "07 - In This Dull City.wav" WAVE
INDEX 01 00:00:00
TRACK 08 AUDIO
TITLE "They Mistook Time For Line"
PERFORMER "Tiner - Phillips - Schoenbeck Trio"
INDEX 00 02:40:32
FILE "08 - They Mistook Time For Line.wav" WAVE
INDEX 01 00:00:00
TRACK 09 AUDIO
TITLE "Metal Skin"
PERFORMER "Tiner - Phillips - Schoenbeck Trio"
INDEX 00 03:02:44
FILE "09 - Metal Skin.wav" WAVE
INDEX 01 00:00:00
TRACK 10 AUDIO
TITLE "Force A Smooth Thing"
PERFORMER "Tiner - Phillips - Schoenbeck Trio"
INDEX 00 02:34:02
FILE "10 - Force A Smooth Thing.wav" WAVE
INDEX 01 00:00:00
 
Лог проверки качества
d:\>d:\aucdtect -d/-m0 d:\zzz\*.wav
auCDtect: CD records authenticity detector, version 0.8.2
Copyright (c) 2004 Oleg Berngardt. All rights reserved.
Copyright (c) 2004 Alexander Djourik. All rights reserved.
------------------------------------------------------------
Processing file: [01. Skujellifeddy (McGranehan).wav]
------------------------------------------------------------
This track looks like CDDA with probability 100%
------------------------------------------------------------
Processing file: [02. A Wind Shift.wav]
------------------------------------------------------------
This track looks like CDDA with probability 100%
------------------------------------------------------------
Processing file: [03. Clock And Maps.wav]
------------------------------------------------------------
This track looks like CDDA with probability 100%
------------------------------------------------------------
Processing file: [04. Like Red Flowers.wav]
------------------------------------------------------------
This track looks like CDDA with probability 100%
------------------------------------------------------------
Processing file: [05. Winddrone, Water Drying.wav]
------------------------------------------------------------
This track looks like CDDA with probability 100%
------------------------------------------------------------
Processing file: [06. Road From Kumasi.wav]
------------------------------------------------------------
This track looks like CDDA with probability 100%
------------------------------------------------------------
Processing file: [07. In This Dull City.wav]
------------------------------------------------------------
This track looks like CDDA with probability 100%
------------------------------------------------------------
Processing file: [08. They Mistook Time For Line.wav]
------------------------------------------------------------
This track looks like CDDA with probability 100%
------------------------------------------------------------
Processing file: [09. Metal Skin.wav]
------------------------------------------------------------
This track looks like CDDA with probability 100%
------------------------------------------------------------
Processing file: [10. Force A Smooth Thing.wav]
------------------------------------------------------------
This track looks like CDDA with probability 100%
------------------------------------------------------------
Final Conclusion:
------------------------------------------------------------
These tracks looks like CDDA with probability 100%
Доп. информация:
 
Album Info & AAJ Review
Recorded at Catasonic Studios in Echo Park, CA 11.18.02
Breathe In, Feed Out fuses the extended imaginations of three of LA’s fine free creators: Kris Tiner, trumpet, Noah Phillips, guitar & electronics, and Sara Schoenbeck, bassoon. Together they fashion moody thoughtful music that delivers unexpected warmth and familiarity.
Phillips stretchy metal dominates Tiner’s “Skujellifeddy.” Tiner and Schoenbeck play long unisons while Phillips buzzes and shreds. After the active opening, Tiner and Phillips play counterpoint with Schoenbeck, going out pensive. Tiner uses soulful phrasing on “A Wind Shift,” engaging Schoenbeck in conversation, with Phillips dropping distortions and sneaky notes.
Beginning with a three-way pyrotechnic display, the edgier “Clocks and Maps” slows with Phillips’ sonic sketches, and Tiner and Schoenbeck swap tales to the otherworldly electric effects. Sly, slippery sounds from Phillips open “Like Red Flowers,” a luscious, sultry ballad. Tiner plays it blue and lonesome, shading and phrasing. Schoenbeck blows her warm woody tone through some stormy passages before Tiner drops his supportive mute to cry like a gifted baby
Spontaneous instrument sounds and noises open ”Winddrone, Water Drying,” which shifts into high gear like a truck coming apart. Then the trio strikes gold on Tiner’s “Road from Kumasi.” Phillips repeats a simple hopeful figure and Tiner laces it with expressive, melodically strong variations. Schoenbeck follows, like her fellows, exploiting her instrument’’s richest range, shaping, bending, rounding notes.
After the fanfare intro, “In This Dull City” retreats and revives with trills and dramatic voicings. The intriguing “They Mistook Time For Line” features an oozing solo from Phillips, soon joined by Tiner’s tart mute. All three explore unusual voicings on “Metal Skin,” from Phillips' buzz and drones to Tiner and Schoenbeck’s multiphonics and toneless blowing. All three explore raw ragged tones to start “Force a Smooth Thing.” Phillips employs a number of effects boxes to achieve effects unintended by their designers. As Phllips samples radio Tokyo, Tiner and Schoenbeck come looming back, then Phillips sprays distortion.
With their first release, Tiner, Phillips, and Schoenbeck establish themselves as sound scientists of the heart.
 
Состав
Bassoon – Sara Schoenbeck
Electric Guitar, Electronics – Noah Phillips
Trumpet, Flugelhorn, Trumpet [Piccolo], Reeds, Photography – Kris Tiner
По всем вопросам пишите личное сообщение пользователю M0p94ok.
16:03
157
Нет комментариев. Ваш будет первым!