Вы используете незарегистрированную версию компонента "Вкладки"!

Поиск

(free jazz, post-bop) Joe Rosenberg Quartet East - Version Two 2005, FLAC (tracks+.cue), lossless

(free jazz, post-bop) Joe Rosenberg Quartet East - Version Two 2005, FLAC (tracks+.cue), lossless
Треклист:


Joe Rosenberg Quartet East - Version Two 2005

Жанр: free jazz, post-bop
Год выпуска: 2005
Издатель (лейбл): 1Hr Music / 003
Формат: FLAC (tracks+.cue)
Битрейт аудио: lossless
Продолжительность 57`50
Источник: what.cd, wanchaiboi
Joe Rosenberg: soprano sax
Masako Hamamura: piano
Peter Scherr: bass
Aksan Sjuman: drum

tracks

01 - Protean Static
02 - Unagi
03 - .357 part 1
04 - .357 part 2
05 - Version Two part 1
06 - Version Two part 2
07 - Version Two part 3
08 - The Other Side of Next to Nothing


 
.log
X Lossless Decoder version 20121013 (142.0)
XLD extraction logfile from 2012-10-21 12:14:16 +0800
Joe Rosenberg Quartet East / Version Two
Used drive : PIONEER DVD-RW DVR-112D (revision BC14)
Ripper mode : XLD Secure Ripper
Disable audio cache : OK for the drive with a cache less than 1375KiB
Make use of C2 pointers : NO
Read offset correction : 48
Max retry count : 20
Gap status : Analyzed, Appended
TOC of the extracted CD
Track | Start | Length | Start sector | End sector
---------------------------------------------------------
1 | 00:00:00 | 11:51:23 | 0 | 53347
2 | 11:51:23 | 11:09:13 | 53348 | 103535
3 | 23:00:36 | 03:17:68 | 103536 | 118378
4 | 26:18:29 | 04:51:54 | 118379 | 140257
5 | 31:10:08 | 05:45:42 | 140258 | 166174
6 | 36:55:50 | 04:54:42 | 166175 | 188266
7 | 41:50:17 | 09:55:27 | 188267 | 232918
8 | 51:45:44 | 06:04:16 | 232919 | 260234
AccurateRip Summary (DiscID: 0013460d-007bc971-5c0d8d08)
Track 01 : OK (v1, confidence 1/1)
Track 02 : OK (v1, confidence 1/1)
Track 03 : OK (v1, confidence 1/1)
Track 04 : OK (v1, confidence 1/1)
Track 05 : OK (v1, confidence 1/1)
Track 06 : OK (v1, confidence 1/1)
Track 07 : OK (v1, confidence 1/1)
Track 08 : OK (v1, confidence 1/1)
->All tracks accurately ripped.
All Tracks
Album gain : -3.76 dB
Peak : 0.988647
Statistics
Read error : 0
Jitter error (maybe fixed) : 0
Retry sector count : 6
Damaged sector count : 0
Track 01
Filename : /Volumes/mango.data/flac.rips/Joe Rosenberg Quartet East - 2005 - Version Two [FLAC (level 8)]/01 - Joe Rosenberg Quartet East - Protean Static.flac
/Volumes/mango.data/flac.rips/Joe Rosenberg Quartet East - 2005 - Version Two [LAME MP3 (VBR-new quality 0.0)]/01 - Joe Rosenberg Quartet East - Protean Static.mp3
Pre-gap length : 00:02:00
Track gain : -1.28 dB
Peak : 0.988617
CRC32 hash (test run) : 882A3796
CRC32 hash : 882A3796
CRC32 hash (skip zero) : 6C55CE98
AccurateRip v1 signature : 88F06411
AccurateRip v2 signature : 94FEC0BD
->Accurately ripped (v1, confidence 1/1)
Statistics
Read error : 0
Jitter error (maybe fixed) : 0
Retry sector count : 0
Damaged sector count : 0
Track 02
Filename : /Volumes/mango.data/flac.rips/Joe Rosenberg Quartet East - 2005 - Version Two [FLAC (level 8)]/02 - Joe Rosenberg Quartet East - Unagi.flac
/Volumes/mango.data/flac.rips/Joe Rosenberg Quartet East - 2005 - Version Two [LAME MP3 (VBR-new quality 0.0)]/02 - Joe Rosenberg Quartet East - Unagi.mp3
Track gain : -5.67 dB
Peak : 0.988647
CRC32 hash (test run) : B21D9E51
CRC32 hash : B21D9E51
CRC32 hash (skip zero) : 9ABDA97B
AccurateRip v1 signature : DB653847
AccurateRip v2 signature : D3EF283D
->Accurately ripped (v1, confidence 1/1)
Statistics
Read error : 0
Jitter error (maybe fixed) : 0
Retry sector count : 0
Damaged sector count : 0
Track 03
Filename : /Volumes/mango.data/flac.rips/Joe Rosenberg Quartet East - 2005 - Version Two [FLAC (level 8)]/03 - Joe Rosenberg Quartet East - .357 part 1.flac
/Volumes/mango.data/flac.rips/Joe Rosenberg Quartet East - 2005 - Version Two [LAME MP3 (VBR-new quality 0.0)]/03 - Joe Rosenberg Quartet East - .357 part 1.mp3
Track gain : -0.38 dB
Peak : 0.988556
CRC32 hash (test run) : 9360F52E
CRC32 hash : 9360F52E
CRC32 hash (skip zero) : F61567EF
AccurateRip v1 signature : EB865F90
AccurateRip v2 signature : 2557000A
->Accurately ripped (v1, confidence 1/1)
Statistics
Read error : 0
Jitter error (maybe fixed) : 0
Retry sector count : 0
Damaged sector count : 0
Track 04
Filename : /Volumes/mango.data/flac.rips/Joe Rosenberg Quartet East - 2005 - Version Two [FLAC (level 8)]/04 - Joe Rosenberg Quartet East - .357 part 2.flac
/Volumes/mango.data/flac.rips/Joe Rosenberg Quartet East - 2005 - Version Two [LAME MP3 (VBR-new quality 0.0)]/04 - Joe Rosenberg Quartet East - .357 part 2.mp3
Track gain : -5.10 dB
Peak : 0.988647
CRC32 hash (test run) : E8DE9D33
CRC32 hash : E8DE9D33
CRC32 hash (skip zero) : 4F0E5103
AccurateRip v1 signature : 482729E9
AccurateRip v2 signature : 6CDC8B12
->Accurately ripped (v1, confidence 1/1)
Statistics
Read error : 0
Jitter error (maybe fixed) : 0
Retry sector count : 0
Damaged sector count : 0
Track 05
Filename : /Volumes/mango.data/flac.rips/Joe Rosenberg Quartet East - 2005 - Version Two [FLAC (level 8)]/05 - Joe Rosenberg Quartet East - Version Two part 1.flac
/Volumes/mango.data/flac.rips/Joe Rosenberg Quartet East - 2005 - Version Two [LAME MP3 (VBR-new quality 0.0)]/05 - Joe Rosenberg Quartet East - Version Two part 1.mp3
Track gain : -1.97 dB
Peak : 0.988617
CRC32 hash (test run) : 9C52275B
CRC32 hash : 9C52275B
CRC32 hash (skip zero) : D422AE13
AccurateRip v1 signature : BF07FBE3
AccurateRip v2 signature : E4A735D0
->Accurately ripped (v1, confidence 1/1)
Statistics
Read error : 0
Jitter error (maybe fixed) : 0
Retry sector count : 0
Damaged sector count : 0
Track 06
Filename : /Volumes/mango.data/flac.rips/Joe Rosenberg Quartet East - 2005 - Version Two [FLAC (level 8)]/06 - Joe Rosenberg Quartet East - Version Two part 2.flac
/Volumes/mango.data/flac.rips/Joe Rosenberg Quartet East - 2005 - Version Two [LAME MP3 (VBR-new quality 0.0)]/06 - Joe Rosenberg Quartet East - Version Two part 2.mp3
Track gain : -0.81 dB
Peak : 0.831573
CRC32 hash (test run) : 4C6B9A01
CRC32 hash : 4C6B9A01
CRC32 hash (skip zero) : A62403FA
AccurateRip v1 signature : 28476726
AccurateRip v2 signature : F076CA0D
->Accurately ripped (v1, confidence 1/1)
Statistics
Read error : 0
Jitter error (maybe fixed) : 0
Retry sector count : 0
Damaged sector count : 0
Track 07
Filename : /Volumes/mango.data/flac.rips/Joe Rosenberg Quartet East - 2005 - Version Two [FLAC (level 8)]/07 - Joe Rosenberg Quartet East - Version Two part 3.flac
/Volumes/mango.data/flac.rips/Joe Rosenberg Quartet East - 2005 - Version Two [LAME MP3 (VBR-new quality 0.0)]/07 - Joe Rosenberg Quartet East - Version Two part 3.mp3
Track gain : -2.32 dB
Peak : 0.988617
CRC32 hash (test run) : 07F272CB
CRC32 hash : 07F272CB
CRC32 hash (skip zero) : 9845B151
AccurateRip v1 signature : 468F86B1
AccurateRip v2 signature : 0D9D4A65
->Accurately ripped (v1, confidence 1/1)
Statistics
Read error : 0
Jitter error (maybe fixed) : 0
Retry sector count : 6
Damaged sector count : 0
Track 08
Filename : /Volumes/mango.data/flac.rips/Joe Rosenberg Quartet East - 2005 - Version Two [FLAC (level 8)]/08 - Joe Rosenberg Quartet East - The Other Side of Next to Nothing.flac
/Volumes/mango.data/flac.rips/Joe Rosenberg Quartet East - 2005 - Version Two [LAME MP3 (VBR-new quality 0.0)]/08 - Joe Rosenberg Quartet East - The Other Side of Next to Nothing.mp3
Track gain : -4.79 dB
Peak : 0.988617
CRC32 hash (test run) : 80F29AF4
CRC32 hash : 80F29AF4
CRC32 hash (skip zero) : C8B979D7
AccurateRip v1 signature : C8DF004D
AccurateRip v2 signature : 5D1C6670
->Accurately ripped (v1, confidence 1/1)
Statistics
Read error : 0
Jitter error (maybe fixed) : 0
Retry sector count : 0
Damaged sector count : 0
No errors occurred
End of status report
 
.cue
TITLE "Version Two"
PERFORMER "Joe Rosenberg Quartet East"
REM DATE "2005"
REM DISCID 5C0D8D08
REM REPLAYGAIN_ALBUM_GAIN -3.76 dB
REM REPLAYGAIN_ALBUM_PEAK 0.988647
FILE "01 - Joe Rosenberg Quartet East - Protean Static.flac" WAVE
TRACK 01 AUDIO
TITLE "Protean Static"
PERFORMER "Joe Rosenberg Quartet East"
REM REPLAYGAIN_TRACK_GAIN -1.28 dB
REM REPLAYGAIN_TRACK_PEAK 0.988617
INDEX 01 00:00:00
FILE "02 - Joe Rosenberg Quartet East - Unagi.flac" WAVE
TRACK 02 AUDIO
TITLE "Unagi"
PERFORMER "Joe Rosenberg Quartet East"
REM REPLAYGAIN_TRACK_GAIN -5.67 dB
REM REPLAYGAIN_TRACK_PEAK 0.988647
INDEX 01 00:00:00
FILE "03 - Joe Rosenberg Quartet East - .357 part 1.flac" WAVE
TRACK 03 AUDIO
TITLE ".357 part 1"
PERFORMER "Joe Rosenberg Quartet East"
REM REPLAYGAIN_TRACK_GAIN -0.38 dB
REM REPLAYGAIN_TRACK_PEAK 0.988556
INDEX 01 00:00:00
FILE "04 - Joe Rosenberg Quartet East - .357 part 2.flac" WAVE
TRACK 04 AUDIO
TITLE ".357 part 2"
PERFORMER "Joe Rosenberg Quartet East"
REM REPLAYGAIN_TRACK_GAIN -5.10 dB
REM REPLAYGAIN_TRACK_PEAK 0.988647
INDEX 01 00:00:00
FILE "05 - Joe Rosenberg Quartet East - Version Two part 1.flac" WAVE
TRACK 05 AUDIO
TITLE "Version Two part 1"
PERFORMER "Joe Rosenberg Quartet East"
REM REPLAYGAIN_TRACK_GAIN -1.97 dB
REM REPLAYGAIN_TRACK_PEAK 0.988617
INDEX 01 00:00:00
FILE "06 - Joe Rosenberg Quartet East - Version Two part 2.flac" WAVE
TRACK 06 AUDIO
TITLE "Version Two part 2"
PERFORMER "Joe Rosenberg Quartet East"
REM REPLAYGAIN_TRACK_GAIN -0.81 dB
REM REPLAYGAIN_TRACK_PEAK 0.831573
INDEX 01 00:00:00
FILE "07 - Joe Rosenberg Quartet East - Version Two part 3.flac" WAVE
TRACK 07 AUDIO
TITLE "Version Two part 3"
PERFORMER "Joe Rosenberg Quartet East"
REM REPLAYGAIN_TRACK_GAIN -2.32 dB
REM REPLAYGAIN_TRACK_PEAK 0.988617
INDEX 01 00:00:00
FILE "08 - Joe Rosenberg Quartet East - The Other Side of Next to Nothing.flac" WAVE
TRACK 08 AUDIO
TITLE "The Other Side of Next to Nothing"
PERFORMER "Joe Rosenberg Quartet East"
REM REPLAYGAIN_TRACK_GAIN -4.79 dB
REM REPLAYGAIN_TRACK_PEAK 0.988617
INDEX 01 00:00:00

другие релизы
По всем вопросам пишите личное сообщение пользователю M0p94ok.
16:03
135
Нет комментариев. Ваш будет первым!