Вы используете незарегистрированную версию компонента "Вкладки"!

Поиск

(Free Improvisation, Altri Suoni) Stefano Saccon - Drum ‘n’ Brass – Live at the Sud des Alpes - 2000, FLAC (tracks+.cue), lossless

(Free Improvisation, Altri Suoni) Stefano Saccon - Drum ‘n’ Brass – Live at the Sud des Alpes - 2000, FLAC (tracks+.cue), lossless
Треклист:
Stefano Saccon / Drum ‘n’ Brass – Live at the Sud des Alpes
Жанр: Free Improvisation, Altri Suoni
Страна-производитель диска: Switzerland
Год издания: 2000
Издатель (лейбл): Altri Suoni
Номер по каталогу: AS 073
Аудиокодек: FLAC (*.flac)
Тип рипа: tracks+.cue
Битрейт аудио: lossless
Продолжительность: 52:24
Источник (релизер): Max Monteiro
Наличие сканов в содержимом раздачи: нет
Треклист:
1. Payote I 8:22
2. Drum ‘n’ Brass 9:17
3. Double Cœur 8:45
4. El jaguël 16:47
5. Un entre sixte 2:05
6. Mimosa 2:38
7. Payote II 4:30
All compositions by Stefano Saccon.
Recorded live on November 20, 1999 at the Sud des Alpes, Genève.
Stefano Saccon – Alto and Soprano Saxophones
Lars Lindvall – Trumpet
Pierre Audétat – Piano, Sampler
Bob Harrison – Bass
Norbert Pfammatter – Drums
 
Лог создания рипа
Exact Audio Copy V1.0 beta 3 from 29. August 2011
EAC extraction logfile from 10. July 2013, 10:29
Steffano Saccon / Drum 'n' Brass - Live at the Sud des Alpes
Used drive : SlimtypeeNAU508 5 Adapter: 1 ID: 0
Read mode : Secure
Utilize accurate stream : Yes
Defeat audio cache : Yes
Make use of C2 pointers : No
Read offset correction : 6
Overread into Lead-In and Lead-Out : No
Fill up missing offset samples with silence : Yes
Delete leading and trailing silent blocks : No
Null samples used in CRC calculations : Yes
Used interface : Native Win32 interface for Win NT & 2000
Gap handling : Appended to previous track
Used output format : User Defined Encoder
Selected bitrate : 768 kBit/s
Quality : High
Add ID3 tag : No
Command line compressor : C:\Program Files (x86)\Exact Audio Copy\Flac\flac.exe
Additional command line options : -8 -V -T "ARTIST=%artist%" -T "TITLE=%title%" -T "ALBUM=%albumtitle%" -T "DATE=%year%" -T "TRACKNUMBER=%tracknr%" -T "GENRE=%genre%" -T "PERFORMER=%albuminterpret%" -T "COMPOSER=%composer%" %haslyrics%--tag-from-file=LYRICS="%lyricsfile%"%haslyrics% -T "ALBUMARTIST=%albumartist%" -T "DISCNUMBER=%cdnumber%" -T "TOTALDISCS=%totalcds%" -T "TOTALTRACKS=%numtracks%" -T "COMMENT=%comment%" %source% -o %dest%
TOC of the extracted CD
Track | Start | Length | Start sector | End sector
---------------------------------------------------------
1 | 0:00.00 | 8:21.56 | 0 | 37630
2 | 8:21.56 | 9:16.67 | 37631 | 79397
3 | 17:38.48 | 8:45.07 | 79398 | 118779
4 | 26:23.55 | 16:46.49 | 118780 | 194278
5 | 43:10.29 | 2:05.16 | 194279 | 203669
6 | 45:15.45 | 2:37.66 | 203670 | 215510
7 | 47:53.36 | 4:30.34 | 215511 | 235794
Track 1
Filename C:\EAC rips\01 - Payote I.wav
Pre-gap length 0:00:02.00
Peak level 96.6 %
Extraction speed 2.4 X
Track quality 100.0 %
Test CRC 0D84AEFB
Copy CRC 0D84AEFB
Track not present in AccurateRip database
Copy OK
Track 2
Filename C:\EAC rips\02 - Drum 'n' Brass.wav
Peak level 96.6 %
Extraction speed 2.9 X
Track quality 100.0 %
Test CRC 5E16EA21
Copy CRC 5E16EA21
Track not present in AccurateRip database
Copy OK
Track 3
Filename C:\EAC rips\03 - Double Coeur.wav
Peak level 96.6 %
Extraction speed 3.3 X
Track quality 100.0 %
Test CRC ADA86D68
Copy CRC ADA86D68
Track not present in AccurateRip database
Copy OK
Track 4
Filename C:\EAC rips\04 - El jaguël.wav
Peak level 96.6 %
Extraction speed 3.9 X
Track quality 100.0 %
Test CRC 688992A4
Copy CRC 688992A4
Track not present in AccurateRip database
Copy OK
Track 5
Filename C:\EAC rips\05 - Un entre sixte.wav
Peak level 96.6 %
Extraction speed 3.4 X
Track quality 100.0 %
Test CRC 2A0188DF
Copy CRC 2A0188DF
Track not present in AccurateRip database
Copy OK
Track 6
Filename C:\EAC rips\06 - Mimosa.wav
Peak level 96.6 %
Extraction speed 3.6 X
Track quality 100.0 %
Test CRC A31490DB
Copy CRC A31490DB
Track not present in AccurateRip database
Copy OK
Track 7
Filename C:\EAC rips\07 - Payote II.wav
Peak level 96.6 %
Extraction speed 4.1 X
Track quality 100.0 %
Test CRC E84F375B
Copy CRC E84F375B
Track not present in AccurateRip database
Copy OK
None of the tracks are present in the AccurateRip database
No errors occurred
End of status report
---- CUETools DB Plugin V2.1.4
[CTDB TOCID: 6cnZSqRhzjwU93DIqcrP_NK4gng-] disk not present in database
Submit result: 6cnZSqRhzjwU93DIqcrP_NK4gng- has been uploaded
==== Log checksum AA0885041EC61F42887F38A018C93CDC073C0FF567431C344D30616380659B41 ====
 
Содержание индексной карты (.CUE)
REM GENRE Jazz
REM DATE 2000
REM DISCID 5D0C4707
REM COMMENT "ExactAudioCopy v1.0b3"
PERFORMER "Stefano Saccon"
TITLE "Drum 'n' Brass - Live at the Sud des Alpes "
FILE "01 - Payote I.wav" WAVE
TRACK 01 AUDIO
TITLE "Payote I"
PERFORMER "Stefano Saccon"
INDEX 01 00:00:00
FILE "02 - Drum 'n' Brass.wav" WAVE
TRACK 02 AUDIO
TITLE "Drum 'n' Brass"
PERFORMER "Stefano Saccon"
INDEX 01 00:00:00
FILE "03 - Double Coeur.wav" WAVE
TRACK 03 AUDIO
TITLE "Double Coeur"
PERFORMER "Stefano Saccon"
INDEX 01 00:00:00
FILE "04 - El jaguël.wav" WAVE
TRACK 04 AUDIO
TITLE "El jaguël"
PERFORMER "Stefano Saccon"
INDEX 01 00:00:00
FILE "05 - Un entre sixte.wav" WAVE
TRACK 05 AUDIO
TITLE "Un entre sixte"
PERFORMER "Stefano Saccon"
INDEX 01 00:00:00
FILE "06 - Mimosa.wav" WAVE
TRACK 06 AUDIO
TITLE "Mimosa"
PERFORMER "Stefano Saccon"
INDEX 01 00:00:00
FILE "07 - Payote II.wav" WAVE
TRACK 07 AUDIO
TITLE "Payote II"
PERFORMER "Stefano Saccon"
INDEX 01 00:00:00
По всем вопросам пишите личное сообщение пользователю M0p94ok.
16:02
137
Нет комментариев. Ваш будет первым!