Вы используете незарегистрированную версию компонента "Вкладки"!

Поиск

(Free Jazz, Avant-Garde Jazz, Black Saint) Joe Rosenberg Quartet - Quicksand - 2007, FLAC (tracks+.cue), lossless

(Free Jazz, Avant-Garde Jazz, Black Saint) Joe Rosenberg Quartet - Quicksand - 2007, FLAC (tracks+.cue), lossless
Треклист:
Joe Rosenberg Quartet / Quicksand
Жанр: Free Jazz, Avant-Garde Jazz, Black Saint
Страна-производитель диска: Italy
Год издания: 2007
Издатель (лейбл): Black Saint
Номер по каталогу: 120242-2
Страна: US
Аудиокодек: FLAC (*.flac)
Тип рипа: tracks+.cue
Битрейт аудио: lossless
Продолжительность: 71:02
Источник (релизер): свой фирменный диск
Наличие сканов в содержимом раздачи:
Треклист:
1. A La Carte 12:18
2. Quicksand 11:15
3. Jean-Truc 9:40
4. S.O.S. 11:00
5. Nouvelle Afrique 8:48
6. What It Is 10:29
7. Blood Count 7:28
 
Лог создания рипа
Exact Audio Copy V1.0 beta 3 from 29. August 2011
EAC extraction logfile from 11. July 2013, 22:25
Joe Rosenberg Quartet / Quicksand
Used drive : PIONEER DVD-RW DVR-115D Adapter: 0 ID: 0
Read mode : Secure
Utilize accurate stream : Yes
Defeat audio cache : Yes
Make use of C2 pointers : No
Read offset correction : 48
Overread into Lead-In and Lead-Out : No
Fill up missing offset samples with silence : Yes
Delete leading and trailing silent blocks : No
Null samples used in CRC calculations : Yes
Used interface : Installed external ASPI interface
Gap handling : Appended to previous track
Used output format : User Defined Encoder
Selected bitrate : 896 kBit/s
Quality : High
Add ID3 tag : No
Command line compressor : C:\Program Files\Exact Audio Copy\FLAC\FLAC.EXE
Additional command line options : -6 -V -T "ARTIST=%artist%" -T "TITLE=%title%" -T "ALBUM=%albumtitle%" -T "DATE=%year%" -T "TRACKNUMBER=%tracknr%" -T "GENRE=%genre%" -T "COMMENT=%comment%" -T "BAND=%albuminterpret%" -T "COMPOSER=%composer%" %haslyrics%--tag-from-file=LYRICS="%lyricsfile%"%haslyrics% -T "DISCNUMBER=%cdnumber%" -T "TOTALDISCS=%totalcds%" -T "TOTALTRACKS=%numtracks%" %hascover%--picture="%coverfile%"%hascover% %source% -o %dest%
TOC of the extracted CD
Track | Start | Length | Start sector | End sector
---------------------------------------------------------
1 | 0:00.00 | 12:18.36 | 0 | 55385
2 | 12:18.36 | 11:15.57 | 55386 | 106067
3 | 23:34.18 | 9:40.62 | 106068 | 149629
4 | 33:15.05 | 11:00.64 | 149630 | 199193
5 | 44:15.69 | 8:48.43 | 199194 | 238836
6 | 53:04.37 | 10:29.44 | 238837 | 286055
7 | 63:34.06 | 7:28.62 | 286056 | 319717
Track 1
Filename D:\zzz\01 - A La Carte.wav
Pre-gap length 0:00:02.00
Peak level 97.7 %
Extraction speed 5.6 X
Track quality 100.0 %
Test CRC F2DD1DAA
Copy CRC F2DD1DAA
Cannot be verified as accurate (confidence 1) [16FB20F7], AccurateRip returned [961FB68C] (AR v2)
Copy OK
Track 2
Filename D:\zzz\02 - Quicksand.wav
Peak level 97.7 %
Extraction speed 6.8 X
Track quality 100.0 %
Test CRC B5CA40C1
Copy CRC B5CA40C1
Cannot be verified as accurate (confidence 1) [86F52E5E], AccurateRip returned [E031AE18] (AR v2)
Copy OK
Track 3
Filename D:\zzz\03 - Jean-Truc.wav
Peak level 97.7 %
Extraction speed 7.6 X
Track quality 100.0 %
Test CRC 7D7F2415
Copy CRC 7D7F2415
Cannot be verified as accurate (confidence 1) [4F57786B], AccurateRip returned [705E2FCB] (AR v2)
Copy OK
Track 4
Filename D:\zzz\04 - S.O.S..wav
Peak level 97.7 %
Extraction speed 8.3 X
Track quality 100.0 %
Test CRC 713EA6C5
Copy CRC 713EA6C5
Cannot be verified as accurate (confidence 1) [3D5E34C0], AccurateRip returned [581350BC] (AR v2)
Copy OK
Track 5
Filename D:\zzz\05 - Nouvelle Afrique.wav
Peak level 97.7 %
Extraction speed 8.8 X
Track quality 100.0 %
Test CRC F02FB5B9
Copy CRC F02FB5B9
Cannot be verified as accurate (confidence 1) [3CED5EED], AccurateRip returned [A1250602] (AR v2)
Copy OK
Track 6
Filename D:\zzz\06 - What It Is.wav
Peak level 97.7 %
Extraction speed 9.5 X
Track quality 100.0 %
Test CRC F3067064
Copy CRC F3067064
Cannot be verified as accurate (confidence 1) [475860C1], AccurateRip returned [34A03CE2] (AR v2)
Copy OK
Track 7
Filename D:\zzz\07 - Blood Count.wav
Peak level 97.7 %
Extraction speed 9.6 X
Track quality 100.0 %
Test CRC EB0F8D8C
Copy CRC EB0F8D8C
Cannot be verified as accurate (confidence 1) [38B69197], AccurateRip returned [09909500] (AR v2)
Copy OK
No tracks could be verified as accurate
You may have a different pressing from the one(s) in the database
No errors occurred
End of status report
==== Log checksum B71035BF0AD8D5D94CDF90408BDC6DE779580C40EF663A3F6480976E07467B80 ====
 
Содержание индексной карты (.CUE)
REM GENRE "Avant-Garde Jazz"
REM DATE 2007
REM DISCID 6B10A607
REM COMMENT "ExactAudioCopy v1.0b3"
PERFORMER "Joe Rosenberg Quartet"
TITLE "Quicksand"
FILE "01 - A La Carte.wav" WAVE
TRACK 01 AUDIO
TITLE "A La Carte"
PERFORMER "Joe Rosenberg Quartet"
INDEX 01 00:00:00
FILE "02 - Quicksand.wav" WAVE
TRACK 02 AUDIO
TITLE "Quicksand"
PERFORMER "Joe Rosenberg Quartet"
INDEX 01 00:00:00
FILE "03 - Jean-Truc.wav" WAVE
TRACK 03 AUDIO
TITLE "Jean-Truc"
PERFORMER "Joe Rosenberg Quartet"
INDEX 01 00:00:00
FILE "04 - S.O.S..wav" WAVE
TRACK 04 AUDIO
TITLE "S.O.S."
PERFORMER "Joe Rosenberg Quartet"
INDEX 01 00:00:00
FILE "05 - Nouvelle Afrique.wav" WAVE
TRACK 05 AUDIO
TITLE "Nouvelle Afrique"
PERFORMER "Joe Rosenberg Quartet"
INDEX 01 00:00:00
FILE "06 - What It Is.wav" WAVE
TRACK 06 AUDIO
TITLE "What It Is"
PERFORMER "Joe Rosenberg Quartet"
INDEX 01 00:00:00
FILE "07 - Blood Count.wav" WAVE
TRACK 07 AUDIO
TITLE "Blood Count"
PERFORMER "Joe Rosenberg Quartet"
INDEX 01 00:00:00
 
Лог проверки качества
d:\>d:\aucdtect -d/-m0 d:\zzz\*.wav
auCDtect: CD records authenticity detector, version 0.8.2
Copyright (c) 2004 Oleg Berngardt. All rights reserved.
Copyright (c) 2004 Alexander Djourik. All rights reserved.
------------------------------------------------------------
Processing file: [01. A La Carte.wav]
------------------------------------------------------------
This track looks like CDDA with probability 85%
------------------------------------------------------------
Processing file: [02. Quicksand.wav]
------------------------------------------------------------
This track looks like CDDA with probability 43%
------------------------------------------------------------
Processing file: [03. Jean-Truc.wav]
------------------------------------------------------------
This track looks like CDDA with probability 43%
------------------------------------------------------------
Processing file: [04. S.O.S..wav]
------------------------------------------------------------
This track looks like MPEG with probability 90%
------------------------------------------------------------
Processing file: [05. Nouvelle Afrique.wav]
------------------------------------------------------------
This track looks like CDDA with probability 100%
------------------------------------------------------------
Processing file: [06. What It Is.wav]
------------------------------------------------------------
This track looks like MPEG with probability 80%
------------------------------------------------------------
Processing file: [07. Blood Count.wav]
------------------------------------------------------------
This track looks like CDDA with probability 94%
------------------------------------------------------------
Final Conclusion:
------------------------------------------------------------
These tracks looks like CDDA with probability 100%
Доп. информация:
 
Album Info & Freejazzblog Review
Recorded live on June 30th, 2002 at The Knitting Factory, NY
Mastered at Wizard Studio, Merlino - Milano
Engineer: Aldo Borrelli
Producer: Joe Rosenberg
Executive Producer: Flavio Bonandrini
Cover Art: Maria Bonandrini
This live recording starts with a very nice clean-sounding solo improvization by Joe Rosenberg on sax, then Masako Hamamura joins on piano, adding a few soft chords, then Mark Helias' bass takes over, gently plucking the strings, moving the track a step further as an intro for a fragile unisono line between sax and piano, elegantly accentuated by Tom Rainey on drums. The rhythm section proves to have the absolutely necessary sensitivity to accompany Rosenberg in his adventurous take on music, which is calm, accurate, slowly building on the structures he creates. This does not mean that the music is not intense, it certainly is, but it's restrained at the same time. Violent emotional outbursts or expressions of extreme feelings are alien to this music: it flows like a river, finding its own melodic course through the creative interplay of the moment. It is the free variant of post-bop. Helias and Rainey of course need no introduction, and whatever these two musicians do lately apparently turns into a success. Hamamura is a discovery for me : her piano-playing is excellent. The real star is Rosenberg himself, for the quality and the sensitivity of his playing, and for his compositions. Exciting music, and fun too. And the Knitting Factory audience seemed to agree!
 
Состав
Joe Rosenberg: soprano saxophone
Masako Hamamura: piano
Mark Helias: bass
Tom Rainey: drums
Any questions -> support@pro-jazz.com. По всем вопросам пишите -> support@pro-jazz.com
16:01
207
Нет комментариев. Ваш будет первым!