Вы используете незарегистрированную версию компонента "Вкладки"!

Поиск

(Free Jazz, Avant-Garde Jazz, Black Saint) Tiziano Tononi & The Ornettians - Peace Warriors Vol. 1 - 2005, FLAC (tracks+.cue), lossless

(Free Jazz, Avant-Garde Jazz, Black Saint) Tiziano Tononi & The Ornettians - Peace Warriors Vol. 1 - 2005, FLAC (tracks+.cue), lossless
Треклист:
Tiziano Tononi & The Ornettians / Peace Warriors Vol. 1
Жанр: Free Jazz, Avant-Garde Jazz, Black Saint
Страна-производитель диска: Italy
Год издания: 2005
Издатель (лейбл): Black Saint
Номер по каталогу: 120151-2
Страна: Italy
Аудиокодек: FLAC (*.flac)
Тип рипа: tracks+.cue
Битрейт аудио: lossless
Продолжительность: 78:55
Источник (релизер): свой фирменный диск
Наличие сканов в содержимом раздачи:
Треклист:
1 And Now We Interrupt For A Commercial... / Broadway Blues 7:34
2 Sadness 8:15
3 Happy House 2:44
4 Faithful 8:42
5 Feet Music 6:04
6 The Empty Foxhole 9:01
7 A Girl Named Rainbow / School Work 13:10
8 Peace Warriors / Africa Is The Mirror Of All Colours 12:31
9 Ode To The Master Drummers Of Harmolodia 10:50
 
Лог создания рипа
Exact Audio Copy V1.0 beta 3 from 29. August 2011
EAC extraction logfile from 11. July 2013, 21:52
Tiziano Tononi & The Ornettians / Peace Warriors Vol. 1
Used drive : PIONEER DVD-RW DVR-115D Adapter: 0 ID: 0
Read mode : Secure
Utilize accurate stream : Yes
Defeat audio cache : Yes
Make use of C2 pointers : No
Read offset correction : 48
Overread into Lead-In and Lead-Out : No
Fill up missing offset samples with silence : Yes
Delete leading and trailing silent blocks : No
Null samples used in CRC calculations : Yes
Used interface : Installed external ASPI interface
Gap handling : Appended to previous track
Used output format : User Defined Encoder
Selected bitrate : 896 kBit/s
Quality : High
Add ID3 tag : No
Command line compressor : C:\Program Files\Exact Audio Copy\FLAC\FLAC.EXE
Additional command line options : -6 -V -T "ARTIST=%artist%" -T "TITLE=%title%" -T "ALBUM=%albumtitle%" -T "DATE=%year%" -T "TRACKNUMBER=%tracknr%" -T "GENRE=%genre%" -T "COMMENT=%comment%" -T "BAND=%albuminterpret%" -T "COMPOSER=%composer%" %haslyrics%--tag-from-file=LYRICS="%lyricsfile%"%haslyrics% -T "DISCNUMBER=%cdnumber%" -T "TOTALDISCS=%totalcds%" -T "TOTALTRACKS=%numtracks%" %hascover%--picture="%coverfile%"%hascover% %source% -o %dest%
TOC of the extracted CD
Track | Start | Length | Start sector | End sector
---------------------------------------------------------
1 | 0:00.00 | 7:34.70 | 0 | 34119
2 | 7:34.70 | 8:15.32 | 34120 | 71276
3 | 15:50.27 | 2:44.60 | 71277 | 83636
4 | 18:35.12 | 8:42.42 | 83637 | 122828
5 | 27:17.54 | 6:04.01 | 122829 | 150129
6 | 33:21.55 | 9:01.25 | 150130 | 190729
7 | 42:23.05 | 13:10.27 | 190730 | 250006
8 | 55:33.32 | 12:31.05 | 250007 | 306336
9 | 68:04.37 | 10:50.73 | 306337 | 355159
Track 1
Filename D:\zzz\01 - And Now We Interrupt For A Commercial... , Broadway Blues.wav
Pre-gap length 0:00:02.00
Peak level 99.8 %
Extraction speed 5.2 X
Track quality 100.0 %
Test CRC EA7C9434
Copy CRC EA7C9434
Accurately ripped (confidence 1) [9BE41662] (AR v1)
Copy OK
Track 2
Filename D:\zzz\02 - Sadness.wav
Peak level 99.8 %
Extraction speed 6.0 X
Track quality 100.0 %
Test CRC 624D3069
Copy CRC 624D3069
Accurately ripped (confidence 1) [4C258792] (AR v1)
Copy OK
Track 3
Filename D:\zzz\03 - Happy House.wav
Peak level 99.8 %
Extraction speed 5.7 X
Track quality 100.0 %
Test CRC 37C88851
Copy CRC 37C88851
Accurately ripped (confidence 1) [E5CF1ECA] (AR v1)
Copy OK
Track 4
Filename D:\zzz\04 - Faithful.wav
Peak level 99.8 %
Extraction speed 6.5 X
Track quality 99.9 %
Test CRC A575696B
Copy CRC A575696B
Accurately ripped (confidence 1) [26E260B2] (AR v1)
Copy OK
Track 5
Filename D:\zzz\05 - Feet Music.wav
Peak level 99.8 %
Extraction speed 7.3 X
Track quality 100.0 %
Test CRC 428CFB20
Copy CRC 428CFB20
Accurately ripped (confidence 1) [9C4BABA5] (AR v1)
Copy OK
Track 6
Filename D:\zzz\06 - The Empty Foxhole.wav
Peak level 99.8 %
Extraction speed 8.0 X
Track quality 100.0 %
Test CRC BB86BA40
Copy CRC BB86BA40
Accurately ripped (confidence 1) [9F0309E4] (AR v1)
Copy OK
Track 7
Filename D:\zzz\07 - A Girl Named Rainbow , School Work.wav
Peak level 99.8 %
Extraction speed 8.8 X
Track quality 100.0 %
Test CRC 64D62C29
Copy CRC 64D62C29
Accurately ripped (confidence 1) [DF15C8A1] (AR v1)
Copy OK
Track 8
Filename D:\zzz\08 - Peace Warriors , Africa Is The Mirror Of All Colours.wav
Peak level 99.9 %
Extraction speed 9.5 X
Track quality 100.0 %
Test CRC CF1171AA
Copy CRC CF1171AA
Accurately ripped (confidence 1) [329EC5BC] (AR v1)
Copy OK
Track 9
Filename D:\zzz\09 - Ode To The Master Drummers Of Harmolodia.wav
Peak level 99.8 %
Extraction speed 9.9 X
Track quality 100.0 %
Test CRC 589752D5
Copy CRC 589752D5
Accurately ripped (confidence 1) [F8B60283] (AR v1)
Copy OK
All tracks accurately ripped
No errors occurred
End of status report
==== Log checksum 5D97DF6251C874CCBCE87B2E9DFEE07D74E2C6108A126CE2BEBE2E2FBFFADEEA ====
 
Содержание индексной карты (.CUE)
REM GENRE "Avant-Garde Jazz"
REM DATE 2005
REM DISCID 73127F09
REM COMMENT "ExactAudioCopy v1.0b3"
PERFORMER "Tiziano Tononi & The Ornettians"
TITLE "Peace Warriors Vol. 1"
FILE "01 - And Now We Interrupt For A Commercial... , Broadway Blues.wav" WAVE
TRACK 01 AUDIO
TITLE "And Now We Interrupt For A Commercial... / Broadway Blues"
PERFORMER "Tiziano Tononi & The Ornettians"
INDEX 01 00:00:00
FILE "02 - Sadness.wav" WAVE
TRACK 02 AUDIO
TITLE "Sadness"
PERFORMER "Tiziano Tononi & The Ornettians"
INDEX 01 00:00:00
FILE "03 - Happy House.wav" WAVE
TRACK 03 AUDIO
TITLE "Happy House"
PERFORMER "Tiziano Tononi & The Ornettians"
INDEX 01 00:00:00
FILE "04 - Faithful.wav" WAVE
TRACK 04 AUDIO
TITLE "Faithful"
PERFORMER "Tiziano Tononi & The Ornettians"
INDEX 01 00:00:00
FILE "05 - Feet Music.wav" WAVE
TRACK 05 AUDIO
TITLE "Feet Music"
PERFORMER "Tiziano Tononi & The Ornettians"
INDEX 01 00:00:00
FILE "06 - The Empty Foxhole.wav" WAVE
TRACK 06 AUDIO
TITLE "The Empty Foxhole"
PERFORMER "Tiziano Tononi & The Ornettians"
INDEX 01 00:00:00
FILE "07 - A Girl Named Rainbow , School Work.wav" WAVE
TRACK 07 AUDIO
TITLE "A Girl Named Rainbow / School Work"
PERFORMER "Tiziano Tononi & The Ornettians"
INDEX 01 00:00:00
FILE "08 - Peace Warriors , Africa Is The Mirror Of All Colours.wav" WAVE
TRACK 08 AUDIO
TITLE "Peace Warriors / Africa Is The Mirror Of All Colours"
PERFORMER "Tiziano Tononi & The Ornettians"
INDEX 01 00:00:00
FILE "09 - Ode To The Master Drummers Of Harmolodia.wav" WAVE
TRACK 09 AUDIO
TITLE "Ode To The Master Drummers Of Harmolodia"
PERFORMER "Tiziano Tononi & The Ornettians"
INDEX 01 00:00:00
 
Лог проверки качества
d:\>d:\aucdtect -d/-m0 d:\zzz\*.wav
auCDtect: CD records authenticity detector, version 0.8.2
Copyright (c) 2004 Oleg Berngardt. All rights reserved.
Copyright (c) 2004 Alexander Djourik. All rights reserved.
------------------------------------------------------------
Processing file: [01. And Now We Interrupt For A Commercial... - Broadway Blues.wav]
------------------------------------------------------------
This track looks like CDDA with probability 100%
------------------------------------------------------------
Processing file: [02. Sadness.wav]
------------------------------------------------------------
This track looks like CDDA with probability 100%
------------------------------------------------------------
Processing file: [03. Happy House.wav]
------------------------------------------------------------
This track looks like CDDA with probability 100%
------------------------------------------------------------
Processing file: [04. Faithful.wav]
------------------------------------------------------------
This track looks like CDDA with probability 100%
------------------------------------------------------------
Processing file: [05. Feet Music.wav]
------------------------------------------------------------
This track looks like CDDA with probability 100%
------------------------------------------------------------
Processing file: [06. The Empty Foxhole.wav]
------------------------------------------------------------
This track looks like CDDA with probability 100%
------------------------------------------------------------
Processing file: [07. A Girl Named Rainbow - School Work.wav]
------------------------------------------------------------
This track looks like CDDA with probability 100%
------------------------------------------------------------
Processing file: [08. Peace Warriors - Africa Is The Mirror Of All Colours.wav]
------------------------------------------------------------
This track looks like CDDA with probability 100%
------------------------------------------------------------
Processing file: [09. Ode To The Master Drummers Of Harmolodia.wav]
------------------------------------------------------------
This track looks like CDDA with probability 100%
------------------------------------------------------------
Final Conclusion:
------------------------------------------------------------
These tracks looks like CDDA with probability 100%
 
Состав
Alto Saxophone – Achille Succi
Double Bass – Giovanni Maier, Piero Leveratto
Drums, Percussion, Gong – Tiziano Tononi
Tenor Saxophone – Daniele Cavallanti
Violin – Emanuele Parrini
Recorded on May 18th, 2004 at Maxine Studio, Milano
Any questions -> support@pro-jazz.com. По всем вопросам пишите -> support@pro-jazz.com
16:01
143
Нет комментариев. Ваш будет первым!