Вы используете незарегистрированную версию компонента "Вкладки"!

Поиск

(Free Jazz, Avant-Garde Jazz, Black Saint) Roscoe Mitchell Quartet - The Flow Of Things - 1987, FLAC (tracks+.cue), lossless

(Free Jazz, Avant-Garde Jazz, Black Saint) Roscoe Mitchell Quartet - The Flow Of Things - 1987, FLAC (tracks+.cue), lossless
Треклист:
Roscoe Mitchell Quartet / The Flow Of Things
Жанр: Free Jazz, Avant-Garde Jazz, Black Saint
Страна-производитель диска: Italy
Год издания: 1987
Издатель (лейбл): Black Saint
Номер по каталогу: 120090-2
Страна: US
Аудиокодек: FLAC (*.flac)
Тип рипа: tracks+.cue
Битрейт аудио: lossless
Продолжительность: 43:18
Источник (релизер): свой фирменный диск
Наличие сканов в содержимом раздачи:
Треклист:
1 The Flow Of Things - No. 1 10:29
2 The Flow Of Things - No. 2 10:11
3 Cards For Quartet 9:14
4 The Flow Of Things - No. 3 (Live) 13:18
 
Лог создания рипа
Exact Audio Copy V1.0 beta 3 from 29. August 2011
EAC extraction logfile from 11. July 2013, 0:04
Roscoe Mitchell Quartet / The Flow Of Things
Used drive : PIONEER DVD-RW DVR-115D Adapter: 0 ID: 0
Read mode : Secure
Utilize accurate stream : Yes
Defeat audio cache : Yes
Make use of C2 pointers : No
Read offset correction : 48
Overread into Lead-In and Lead-Out : No
Fill up missing offset samples with silence : Yes
Delete leading and trailing silent blocks : No
Null samples used in CRC calculations : Yes
Used interface : Installed external ASPI interface
Gap handling : Appended to previous track
Used output format : User Defined Encoder
Selected bitrate : 896 kBit/s
Quality : High
Add ID3 tag : No
Command line compressor : C:\Program Files\Exact Audio Copy\FLAC\FLAC.EXE
Additional command line options : -6 -V -T "ARTIST=%artist%" -T "TITLE=%title%" -T "ALBUM=%albumtitle%" -T "DATE=%year%" -T "TRACKNUMBER=%tracknr%" -T "GENRE=%genre%" -T "COMMENT=%comment%" -T "BAND=%albuminterpret%" -T "COMPOSER=%composer%" %haslyrics%--tag-from-file=LYRICS="%lyricsfile%"%haslyrics% -T "DISCNUMBER=%cdnumber%" -T "TOTALDISCS=%totalcds%" -T "TOTALTRACKS=%numtracks%" %hascover%--picture="%coverfile%"%hascover% %source% -o %dest%
TOC of the extracted CD
Track | Start | Length | Start sector | End sector
---------------------------------------------------------
1 | 0:00.33 | 10:30.62 | 33 | 47344
2 | 10:31.20 | 10:13.40 | 47345 | 93359
3 | 20:44.60 | 9:18.13 | 93360 | 135222
4 | 30:02.73 | 13:15.70 | 135223 | 194917
Track 1
Filename D:\zzz\01 - The Flow Of Things - No. 1.wav
Pre-gap length 0:00:02.33
Peak level 97.9 %
Extraction speed 5.0 X
Track quality 100.0 %
Test CRC 199225E8
Copy CRC 199225E8
Accurately ripped (confidence 5) [8F342B1A] (AR v1)
Copy OK
Track 2
Filename D:\zzz\02 - The Flow Of Things - No. 2.wav
Pre-gap length 0:00:01.32
Peak level 99.8 %
Extraction speed 5.8 X
Track quality 99.9 %
Test CRC 18E1B780
Copy CRC 18E1B780
Accurately ripped (confidence 4) [FAB5C8D1] (AR v1)
Copy OK
Track 3
Filename D:\zzz\03 - Cards For Quartet.wav
Pre-gap length 0:00:02.47
Peak level 60.0 %
Extraction speed 6.8 X
Track quality 100.0 %
Test CRC B10CEFD4
Copy CRC B10CEFD4
Accurately ripped (confidence 4) [FD425C07] (AR v1)
Copy OK
Track 4
Filename D:\zzz\04 - The Flow Of Things - No. 3 (Live).wav
Pre-gap length 0:00:04.53
Peak level 86.2 %
Extraction speed 7.7 X
Track quality 100.0 %
Test CRC 4D4CC306
Copy CRC 4D4CC306
Accurately ripped (confidence 5) [492FB81B] (AR v1)
Copy OK
All tracks accurately ripped
No errors occurred
End of status report
==== Log checksum 6A474CA18B92F843FE2E5D5CF522535EC9E2CD6F7C63EF2C3C247996F1634126 ====
 
Содержание индексной карты (.CUE)
REM GENRE "Free Jazz"
REM DATE 1987
REM DISCID 280A2604
REM COMMENT "ExactAudioCopy v1.0b3"
PERFORMER "Roscoe Mitchell Quartet"
TITLE "The Flow Of Things"
FILE "01 - The Flow Of Things - No. 1.wav" WAVE
TRACK 01 AUDIO
TITLE "The Flow Of Things - No. 1"
PERFORMER "Roscoe Mitchell Quartet"
PREGAP 00:00:33
INDEX 01 00:00:00
TRACK 02 AUDIO
TITLE "The Flow Of Things - No. 2"
PERFORMER "Roscoe Mitchell Quartet"
INDEX 00 10:29:30
FILE "02 - The Flow Of Things - No. 2.wav" WAVE
INDEX 01 00:00:00
TRACK 03 AUDIO
TITLE "Cards For Quartet"
PERFORMER "Roscoe Mitchell Quartet"
INDEX 00 10:10:68
FILE "03 - Cards For Quartet.wav" WAVE
INDEX 01 00:00:00
TRACK 04 AUDIO
TITLE "The Flow Of Things - No. 3 (Live)"
PERFORMER "Roscoe Mitchell Quartet"
INDEX 00 09:13:35
FILE "04 - The Flow Of Things - No. 3 (Live).wav" WAVE
INDEX 01 00:00:00
 
Лог проверки качества
d:\>d:\aucdtect -d/-m0 d:\zzz\*.wav
auCDtect: CD records authenticity detector, version 0.8.2
Copyright (c) 2004 Oleg Berngardt. All rights reserved.
Copyright (c) 2004 Alexander Djourik. All rights reserved.
------------------------------------------------------------
Processing file: [01. The Flow Of Things - No. 1.wav]
------------------------------------------------------------
This track looks like CDDA with probability 100%
------------------------------------------------------------
Processing file: [02. The Flow Of Things - No. 2.wav]
------------------------------------------------------------
This track looks like CDDA with probability 100%
------------------------------------------------------------
Processing file: [03. Cards For Quartet.wav]
------------------------------------------------------------
This track looks like CDDA with probability 100%
------------------------------------------------------------
Processing file: [04. The Flow Of Things - No. 3 (Live).wav]
------------------------------------------------------------
This track looks like CDDA with probability 100%
------------------------------------------------------------
Final Conclusion:
------------------------------------------------------------
These tracks looks like CDDA with probability 100%
Доп. информация:
 
Album Info & AMG Review
Tracks 1 & 2 recorded on 7 September 1986 at Raccoon Club. Tracks 3 & 4 recorded on 29 June 1986 at Goetz Theater, Chicago, IL.
Sounding like a sour piece of gauzy metal set aflame, Roscoe Mitchell's soprano saxophone endlessly snakes its way through the three sections of "The Flow of Things" on this 1987 album of the same name. The piece forms the meat of this solo effort by the Art Ensemble of Chicago soloist, demonstrating Mitchell's knack for circular breathing as well as a longstanding love of full-throttle, free-wheeling group improvisation. It's not about swinging, but if you fancy being pinned to the wall by a barrage of high-end repartee by some of the best in the avant-garde jazz business, then this one's for you. Joining the fray are fellow AACM members pianist Jodie Christian and drummer Steve McCall, as well as Art Ensemble bassist Malachi Favors. Providing a break from the intensity, Mitchell offers up one of his engaging, mystically minimal sound sculptures, "Card for Quartet." The piece definitely gives one an idea of how the music of avant-garde classical composers like Varese, Cage, and Stockhausen can fit into a jazz context. The Flow of Things is probably not the best entrée into Mitchell's work, but after a few Art Ensemble of Chicago records and one of his earlier efforts, make sure to come back for a listen.
 
Состав
Bass – Malachi Favors
Drums – Steve McCall
Piano – Jodie Christian
Soprano Saxophone, Alto Saxophone – Roscoe Mitchell
Any questions -> support@pro-jazz.com. По всем вопросам пишите -> support@pro-jazz.com
16:00
139
Нет комментариев. Ваш будет первым!