Вы используете незарегистрированную версию компонента "Вкладки"!

Поиск

(Free Jazz, Avant-Garde Jazz, Black Saint) Charles Bobo Shaw & Human Arts Ensemble - Junk Trap - 1978, FLAC (tracks+.cue), lossless

(Free Jazz, Avant-Garde Jazz, Black Saint) Charles Bobo Shaw & Human Arts Ensemble - Junk Trap - 1978, FLAC (tracks+.cue), lossless
Треклист:
Charles Bobo Shaw & Human Arts Ensemble / Junk Trap
Жанр: Free Jazz, Avant-Garde Jazz, Black Saint
Страна-производитель диска: Italy
Год издания: 1978
Издатель (лейбл): Black Saint
Номер по каталогу: 120021-2
Страна: US
Аудиокодек: FLAC (*.flac)
Тип рипа: tracks+.cue
Битрейт аудио: lossless
Продолжительность: 51:15
Источник (релизер): свой фирменный диск
Наличие сканов в содержимом раздачи:
Треклист:
1 Beyond The New Horizon 7:42
2 Night Dreamer 10:57
3 Brown Rock City 7:19
4 Skiwee 6:19
5 Junk Trap 9:13
6 Electric Two 6:16
7 Sequence 2:27
 
Лог создания рипа
Exact Audio Copy V1.0 beta 3 from 29. August 2011
EAC extraction logfile from 10. July 2013, 23:21
Charles Bobo Shaw / Junk Trap
Used drive : TSSTcorpCDDVDW SH-222AB Adapter: 1 ID: 0
Read mode : Burst
Read offset correction : 6
Overread into Lead-In and Lead-Out : No
Fill up missing offset samples with silence : Yes
Delete leading and trailing silent blocks : No
Null samples used in CRC calculations : Yes
Used interface : Installed external ASPI interface
Gap handling : Appended to previous track
Used output format : User Defined Encoder
Selected bitrate : 896 kBit/s
Quality : High
Add ID3 tag : No
Command line compressor : C:\Program Files\Exact Audio Copy\FLAC\FLAC.EXE
Additional command line options : -6 -V -T "ARTIST=%artist%" -T "TITLE=%title%" -T "ALBUM=%albumtitle%" -T "DATE=%year%" -T "TRACKNUMBER=%tracknr%" -T "GENRE=%genre%" -T "COMMENT=%comment%" -T "BAND=%albuminterpret%" -T "COMPOSER=%composer%" %haslyrics%--tag-from-file=LYRICS="%lyricsfile%"%haslyrics% -T "DISCNUMBER=%cdnumber%" -T "TOTALDISCS=%totalcds%" -T "TOTALTRACKS=%numtracks%" %hascover%--picture="%coverfile%"%hascover% %source% -o %dest%
TOC of the extracted CD
Track | Start | Length | Start sector | End sector
---------------------------------------------------------
1 | 0:00.00 | 7:56.20 | 0 | 35719
2 | 7:56.20 | 11:02.52 | 35720 | 85421
3 | 18:58.72 | 7:27.35 | 85422 | 118981
4 | 26:26.32 | 6:33.00 | 118982 | 148456
5 | 32:59.32 | 9:15.23 | 148457 | 190104
6 | 42:14.55 | 6:28.15 | 190105 | 219219
7 | 48:42.70 | 2:32.07 | 219220 | 230626
Track 1
Filename D:\zzz\01 - Beyond The New Horizon.wav
Pre-gap length 0:00:02.00
Peak level 98.1 %
Extraction speed 10.4 X
Test CRC 7A2086D3
Copy CRC 3C720D1D
Cannot be verified as accurate (confidence 1) [B0EBD61F], AccurateRip returned [E16E79AF] (AR v2)
Copy OK
Track 2
Filename D:\zzz\02 - Night Dreamer.wav
Pre-gap length 0:00:01.68
Peak level 93.7 %
Extraction speed 10.4 X
Test CRC D37C2536
Copy CRC D37C2536
Accurately ripped (confidence 2) [745662D1] (AR v1)
Copy OK
Track 3
Filename D:\zzz\03 - Brown Rock City.wav
Pre-gap length 0:00:01.50
Peak level 94.4 %
Extraction speed 10.4 X
Test CRC 23C2C0D5
Copy CRC 23C2C0D5
Accurately ripped (confidence 2) [835088FF] (AR v1)
Copy OK
Track 4
Filename D:\zzz\04 - Skiwee.wav
Pre-gap length 0:00:01.45
Peak level 83.7 %
Extraction speed 10.4 X
Test CRC 35B4B3DA
Copy CRC 35B4B3DA
Accurately ripped (confidence 2) [AFBFCAD1] (AR v1)
Copy OK
Track 5
Filename D:\zzz\05 - Junk Trap.wav
Pre-gap length 0:00:01.50
Peak level 97.7 %
Extraction speed 10.4 X
Test CRC 549697F8
Copy CRC 549697F8
Accurately ripped (confidence 2) [CD0D71A6] (AR v1)
Copy OK
Track 6
Filename D:\zzz\06 - Electric Two.wav
Pre-gap length 0:00:01.38
Peak level 83.6 %
Extraction speed 10.4 X
Test CRC 53577469
Copy CRC 53577469
Accurately ripped (confidence 2) [F89BF2E5] (AR v1)
Copy OK
Track 7
Filename D:\zzz\07 - Sequence.wav
Pre-gap length 0:00:01.50
Peak level 90.6 %
Extraction speed 10.4 X
Test CRC 525B878B
Copy CRC 525B878B
Accurately ripped (confidence 2) [048B4FB7] (AR v1)
Copy OK
6 track(s) accurately ripped
1 track(s) could not be verified as accurate
Some tracks could not be verified as accurate
No errors occurred
End of status report
==== Log checksum 61121F42A13C368D8DA67C22D86EF3A5D92C229F9DBADC7FE6C6DC794526072C ====
 
Содержание индексной карты (.CUE)
REM GENRE "Free Jazz"
REM DATE 1978
REM DISCID 650C0307
REM COMMENT "ExactAudioCopy v1.0b3"
PERFORMER "Charles Bobo Shaw"
TITLE "Junk Trap"
FILE "01 - Beyond The New Horizon.wav" WAVE
TRACK 01 AUDIO
TITLE "Beyond The New Horizon"
PERFORMER "Charles Bobo Shaw"
INDEX 01 00:00:00
TRACK 02 AUDIO
TITLE "Night Dreamer"
PERFORMER "Charles Bobo Shaw"
INDEX 00 07:54:27
FILE "02 - Night Dreamer.wav" WAVE
INDEX 01 00:00:00
TRACK 03 AUDIO
TITLE "Brown Rock City"
PERFORMER "Charles Bobo Shaw"
INDEX 00 11:01:02
FILE "03 - Brown Rock City.wav" WAVE
INDEX 01 00:00:00
TRACK 04 AUDIO
TITLE "Skiwee"
PERFORMER "Charles Bobo Shaw"
INDEX 00 07:25:65
FILE "04 - Skiwee.wav" WAVE
INDEX 01 00:00:00
TRACK 05 AUDIO
TITLE "Junk Trap"
PERFORMER "Charles Bobo Shaw"
INDEX 00 06:31:25
FILE "05 - Junk Trap.wav" WAVE
INDEX 01 00:00:00
TRACK 06 AUDIO
TITLE "Electric Two"
PERFORMER "Charles Bobo Shaw"
INDEX 00 09:13:60
FILE "06 - Electric Two.wav" WAVE
INDEX 01 00:00:00
TRACK 07 AUDIO
TITLE "Sequence"
PERFORMER "Charles Bobo Shaw"
INDEX 00 06:26:40
FILE "07 - Sequence.wav" WAVE
INDEX 01 00:00:00
 
Лог проверки качества
d:\>d:\aucdtect -d/-m0 d:\zzz\*.wav
auCDtect: CD records authenticity detector, version 0.8.2
Copyright (c) 2004 Oleg Berngardt. All rights reserved.
Copyright (c) 2004 Alexander Djourik. All rights reserved.
------------------------------------------------------------
Processing file: [01. Beyond The New Horizon.wav]
------------------------------------------------------------
This track looks like CDDA with probability 100%
------------------------------------------------------------
Processing file: [02. Night Dreamer.wav]
------------------------------------------------------------
This track looks like CDDA with probability 100%
------------------------------------------------------------
Processing file: [03. Brown Rock City.wav]
------------------------------------------------------------
This track looks like CDDA with probability 100%
------------------------------------------------------------
Processing file: [04. Skiwee.wav]
------------------------------------------------------------
This track looks like CDDA with probability 100%
------------------------------------------------------------
Processing file: [05. Junk Trap.wav]
------------------------------------------------------------
This track looks like CDDA with probability 100%
------------------------------------------------------------
Processing file: [06. Electric Two.wav]
------------------------------------------------------------
This track looks like CDDA with probability 100%
------------------------------------------------------------
Processing file: [07. Sequence.wav]
------------------------------------------------------------
This track looks like CDDA with probability 100%
------------------------------------------------------------
Final Conclusion:
------------------------------------------------------------
These tracks looks like CDDA with probability 100%
 
Состав
Alto Saxophone – Luther Thomas
Bass – John Lindberg
Drums – Charles Bobo Shaw
Guitar – James Emery
Trombone – Joseph Bowie
recorded May 1978 in Milano
Any questions -> support@pro-jazz.com. По всем вопросам пишите -> support@pro-jazz.com
15:59
134
Нет комментариев. Ваш будет первым!