Вы используете незарегистрированную версию компонента "Вкладки"!

Поиск

(Free Jazz, Avant-garde Jazz) Steve Lacy - Michael Smith - Sidelines - 1992, FLAC (tracks+.cue), lossless

(Free Jazz, Avant-garde Jazz) Steve Lacy - Michael Smith - Sidelines - 1992, FLAC (tracks+.cue), lossless
Треклист:
Steve Lacy - Michael Smith - Sidelines
Жанр: Free Jazz, Avant-garde Jazz
Страна-производитель диска: Italy
Год издания: 1992
Издатель (лейбл): Improvising Artists Inc.
Номер по каталогу: IAI 123847-2
Аудиокодек: FLAC (*.flac)
Тип рипа: tracks+.cue
Битрейт аудио: lossless
Продолжительность: 48 min.
Источник (релизер): собственный рип с оригинального диска.
Наличие сканов в содержимом раздачи: да
Треклист:
01. Existence
02. Utah
03. Austin Stream
04. Sideline
05. Beeline
06. Time 2
07. Worms
 
Лог создания рипа
Exact Audio Copy V1.0 beta 3 from 29. August 2011
EAC extraction logfile from 28. March 2013, 14:42
Steve Lacy - Michael Smith / Sidelines
Used drive : TSSTcorpCDDVDW SH-S222A Adapter: 1 ID: 0
Read mode : Secure
Utilize accurate stream : Yes
Defeat audio cache : Yes
Make use of C2 pointers : No
Read offset correction : 6
Overread into Lead-In and Lead-Out : No
Fill up missing offset samples with silence : Yes
Delete leading and trailing silent blocks : No
Null samples used in CRC calculations : Yes
Used interface : Native Win32 interface for Win NT & 2000
Gap handling : Appended to previous track
Used output format : User Defined Encoder
Selected bitrate : 1024 kBit/s
Quality : High
Add ID3 tag : No
Command line compressor : C:\Tool\CD\EAC10\FLAC\FLAC.EXE
Additional command line options : -8 -V -T "ARTIST=%artist%" -T "TITLE=%title%" -T "ALBUM=%albumtitle%" -T "DATE=%year%" -T "TRACKNUMBER=%tracknr%" -T "GENRE=%genre%" -T "PERFORMER=%albuminterpret%" -T "COMPOSER=%composer%" %haslyrics%--tag-from-file=LYRICS="%lyricsfile%"%haslyrics% -T "ALBUMARTIST=%albumartist%" -T "ALBUM ARTIST=%albumartist%" -T "DISCNUMBER=%cdnumber%" -T "TOTALDISCS=%totalcds%" -T "TOTALTRACKS=%numtracks%" -T "COMMENT=EAC V1.0 beta 3, Secure Mode, Test & Copy, AccurateRip, FLAC -8" %source% -o %dest%
TOC of the extracted CD
Track | Start | Length | Start sector | End sector
---------------------------------------------------------
1 | 0:00.33 | 7:20.62 | 33 | 33094
2 | 7:21.20 | 4:58.68 | 33095 | 55512
3 | 12:20.13 | 2:59.42 | 55513 | 68979
4 | 15:19.55 | 9:30.73 | 68980 | 111802
5 | 24:50.53 | 7:27.17 | 111803 | 145344
6 | 32:17.70 | 3:46.08 | 145345 | 162302
7 | 36:04.03 | 11:32.30 | 162303 | 214232
Track 1
Filename C:\! UPLOAD\Steve Lacy - Michael Smith - Sidelines (1992) [FLAC]\01 - Existence.wav
Pre-gap length 0:00:02.33
Peak level 100.0 %
Extraction speed 3.5 X
Track quality 100.0 %
Test CRC 27306859
Copy CRC 27306859
Accurately ripped (confidence 2) [09463325] (AR v1)
Copy OK
Track 2
Filename C:\! UPLOAD\Steve Lacy - Michael Smith - Sidelines (1992) [FLAC]\02 - Utah.wav
Peak level 99.9 %
Extraction speed 3.4 X
Track quality 100.0 %
Test CRC FA01341C
Copy CRC FA01341C
Accurately ripped (confidence 2) [234CF0BE] (AR v1)
Copy OK
Track 3
Filename C:\! UPLOAD\Steve Lacy - Michael Smith - Sidelines (1992) [FLAC]\03 - Austin Stream.wav
Peak level 81.2 %
Extraction speed 3.1 X
Track quality 100.0 %
Test CRC B6EA05F2
Copy CRC B6EA05F2
Accurately ripped (confidence 2) [0BA533AD] (AR v1)
Copy OK
Track 4
Filename C:\! UPLOAD\Steve Lacy - Michael Smith - Sidelines (1992) [FLAC]\04 - Sideline.wav
Peak level 99.9 %
Extraction speed 3.6 X
Track quality 100.0 %
Test CRC F0E612D9
Copy CRC F0E612D9
Accurately ripped (confidence 2) [05957D57] (AR v1)
Copy OK
Track 5
Filename C:\! UPLOAD\Steve Lacy - Michael Smith - Sidelines (1992) [FLAC]\05 - Beeline.wav
Peak level 99.9 %
Extraction speed 3.6 X
Track quality 100.0 %
Test CRC 6C8D16E0
Copy CRC 6C8D16E0
Accurately ripped (confidence 2) [EC7B07F9] (AR v1)
Copy OK
Track 6
Filename C:\! UPLOAD\Steve Lacy - Michael Smith - Sidelines (1992) [FLAC]\06 - Time 2.wav
Peak level 99.9 %
Extraction speed 2.9 X
Track quality 99.9 %
Test CRC 5E79AAC5
Copy CRC 5E79AAC5
Accurately ripped (confidence 2) [E41FB799] (AR v1)
Copy OK
Track 7
Filename C:\! UPLOAD\Steve Lacy - Michael Smith - Sidelines (1992) [FLAC]\07 - Worms.wav
Peak level 99.9 %
Extraction speed 3.6 X
Track quality 100.0 %
Test CRC 2C21584B
Copy CRC 2C21584B
Accurately ripped (confidence 2) [143ACABE] (AR v1)
Copy OK
All tracks accurately ripped
No errors occurred
End of status report
==== Log checksum 1292039504BA5440630FCAD0EB0B9D11202D57754B8876E96F5D1A9A029790B7 ====
 
Содержание индексной карты (.CUE)
REM GENRE "Free, Avant"
REM DATE 1992
REM DISCID 5B0B2807
REM COMMENT "ExactAudioCopy v1.0b3"
PERFORMER "Steve Lacy - Michael Smith"
TITLE "Sidelines"
FILE "01 - Existence.wav" WAVE
TRACK 01 AUDIO
TITLE "Existence"
PERFORMER "Steve Lacy - Michael Smith"
PREGAP 00:00:33
INDEX 01 00:00:00
FILE "02 - Utah.wav" WAVE
TRACK 02 AUDIO
TITLE "Utah"
PERFORMER "Steve Lacy - Michael Smith"
INDEX 01 00:00:00
FILE "03 - Austin Stream.wav" WAVE
TRACK 03 AUDIO
TITLE "Austin Stream"
PERFORMER "Steve Lacy - Michael Smith"
INDEX 01 00:00:00
FILE "04 - Sideline.wav" WAVE
TRACK 04 AUDIO
TITLE "Sideline"
PERFORMER "Steve Lacy - Michael Smith"
INDEX 01 00:00:00
FILE "05 - Beeline.wav" WAVE
TRACK 05 AUDIO
TITLE "Beeline"
PERFORMER "Steve Lacy - Michael Smith"
INDEX 01 00:00:00
FILE "06 - Time 2.wav" WAVE
TRACK 06 AUDIO
TITLE "Time 2"
PERFORMER "Steve Lacy - Michael Smith"
INDEX 01 00:00:00
FILE "07 - Worms.wav" WAVE
TRACK 07 AUDIO
TITLE "Worms"
PERFORMER "Steve Lacy - Michael Smith"
INDEX 01 00:00:00
Доп. информация:
Recorded on 1 September 1976 at Bendiksen Studio, Oslo, Norway.
 
Об альбоме (by Scott Yanow)
Soprano saxophonist Steve Lacy and the obscure pianist Michael Smith performed seven of their originals for this Improvising Artists set which has recently been reissued on CD.
 
Состав
Steve Lacy - soprano saxophone
Michael Smith - piano
По всем вопросам пишите личное сообщение пользователю M0p94ok.
16:12
233
Нет комментариев. Ваш будет первым!