Вы используете незарегистрированную версию компонента "Вкладки"!

Поиск

(Free Jazz) Andrea Centazzo - Steve Lacy - Clangs - 2000, FLAC (tracks+.cue), lossless

(Free Jazz) Andrea Centazzo - Steve Lacy - Clangs - 2000, FLAC (tracks+.cue), lossless
Треклист:
Andrea Centazzo - Steve Lacy - Clangs
Жанр: Free Jazz
Страна-производитель диска: Italy
Год издания: 2000
Издатель (лейбл): New Tone Records
Номер по каталогу: rdc 5045 2
Аудиокодек: FLAC (*.flac)
Тип рипа: tracks+.cue
Битрейт аудио: lossless
Продолжительность: 42 min.
Источник (релизер): собственный рип с оригинального диска.
Наличие сканов в содержимом раздачи: да
Треклист:
01. The Owl 6:38
02. Tracks 8:53
03. Dome 6:25
04. The New Moon 6:13
05. Torments 8:18
06. Ducks 4:10
 
Лог создания рипа
Exact Audio Copy V1.0 beta 3 from 29. August 2011
EAC extraction logfile from 28. March 2013, 19:07
Andrea Centazzo - Steve Lacy / Clangs
Used drive : TSSTcorpCDDVDW SH-S222A Adapter: 1 ID: 0
Read mode : Secure
Utilize accurate stream : Yes
Defeat audio cache : Yes
Make use of C2 pointers : No
Read offset correction : 6
Overread into Lead-In and Lead-Out : No
Fill up missing offset samples with silence : Yes
Delete leading and trailing silent blocks : No
Null samples used in CRC calculations : Yes
Used interface : Native Win32 interface for Win NT & 2000
Gap handling : Appended to previous track
Used output format : User Defined Encoder
Selected bitrate : 1024 kBit/s
Quality : High
Add ID3 tag : No
Command line compressor : C:\Tool\CD\EAC10\FLAC\FLAC.EXE
Additional command line options : -8 -V -T "ARTIST=%artist%" -T "TITLE=%title%" -T "ALBUM=%albumtitle%" -T "DATE=%year%" -T "TRACKNUMBER=%tracknr%" -T "GENRE=%genre%" -T "PERFORMER=%albuminterpret%" -T "COMPOSER=%composer%" %haslyrics%--tag-from-file=LYRICS="%lyricsfile%"%haslyrics% -T "ALBUMARTIST=%albumartist%" -T "ALBUM ARTIST=%albumartist%" -T "DISCNUMBER=%cdnumber%" -T "TOTALDISCS=%totalcds%" -T "TOTALTRACKS=%numtracks%" -T "COMMENT=EAC V1.0 beta 3, Secure Mode, Test & Copy, AccurateRip, FLAC -8" %source% -o %dest%
TOC of the extracted CD
Track | Start | Length | Start sector | End sector
---------------------------------------------------------
1 | 0:00.00 | 6:36.12 | 0 | 29711
2 | 6:36.12 | 9:07.63 | 29712 | 70799
3 | 15:44.00 | 6:35.32 | 70800 | 100456
4 | 22:19.32 | 6:18.33 | 100457 | 128839
5 | 28:37.65 | 8:19.55 | 128840 | 166319
6 | 36:57.45 | 4:02.65 | 166320 | 184534
Track 1
Filename C:\! LUSHLIFE\UL\Andrea Centazzo - Steve Lacy - Clangs (2000) [FLAC] {New Tone 5045}\01 - The Owl.wav
Pre-gap length 0:00:02.00
Peak level 99.9 %
Extraction speed 3.3 X
Track quality 100.0 %
Test CRC D84BC549
Copy CRC D84BC549
Track not present in AccurateRip database
Copy OK
Track 2
Filename C:\! LUSHLIFE\UL\Andrea Centazzo - Steve Lacy - Clangs (2000) [FLAC] {New Tone 5045}\02 - Tracks.wav
Pre-gap length 0:00:03.45
Peak level 99.9 %
Extraction speed 3.4 X
Track quality 100.0 %
Test CRC 1EBFD6CF
Copy CRC 1EBFD6CF
Track not present in AccurateRip database
Copy OK
Track 3
Filename C:\! LUSHLIFE\UL\Andrea Centazzo - Steve Lacy - Clangs (2000) [FLAC] {New Tone 5045}\03 - Dome.wav
Pre-gap length 0:00:03.45
Peak level 88.4 %
Extraction speed 3.0 X
Track quality 99.9 %
Test CRC 704BC349
Copy CRC 704BC349
Track not present in AccurateRip database
Copy OK
Track 4
Filename C:\! LUSHLIFE\UL\Andrea Centazzo - Steve Lacy - Clangs (2000) [FLAC] {New Tone 5045}\04 - The New Moon.wav
Pre-gap length 0:00:03.45
Peak level 99.9 %
Extraction speed 3.3 X
Track quality 100.0 %
Test CRC FCBA606A
Copy CRC FCBA606A
Track not present in AccurateRip database
Copy OK
Track 5
Filename C:\! LUSHLIFE\UL\Andrea Centazzo - Steve Lacy - Clangs (2000) [FLAC] {New Tone 5045}\05 - Torments.wav
Pre-gap length 0:00:03.43
Peak level 81.8 %
Extraction speed 3.4 X
Track quality 100.0 %
Test CRC 91DC39E0
Copy CRC 91DC39E0
Track not present in AccurateRip database
Copy OK
Track 6
Filename C:\! LUSHLIFE\UL\Andrea Centazzo - Steve Lacy - Clangs (2000) [FLAC] {New Tone 5045}\06 - Ducks.wav
Pre-gap length 0:00:03.48
Peak level 74.1 %
Extraction speed 3.1 X
Track quality 100.0 %
Test CRC 16CD4524
Copy CRC 16CD4524
Track not present in AccurateRip database
Copy OK
None of the tracks are present in the AccurateRip database
No errors occurred
End of status report
---- CUETools DB Plugin V2.1.3
[CTDB TOCID: qOi1pd5TLdX_jziDIFiaGIo0PWI-] disk not present in database, Submit result: qOi1pd5TLdX_jziDIFiaGIo0PWI- has been uploaded
==== Log checksum F9570CA07B8268CCB70DA9BC8BAACA246053011E4DE7B6E536AADEC8D9FEB352 ====
 
Содержание индексной карты (.CUE)
REM GENRE Avantgarde
REM DATE 2000
REM DISCID 52099C06
REM COMMENT "ExactAudioCopy v1.0b3"
PERFORMER "Andrea Centazzo - Steve Lacy"
TITLE "Clangs"
FILE "01 - The Owl.wav" WAVE
TRACK 01 AUDIO
TITLE "The Owl"
PERFORMER "Andrea Centazzo - Steve Lacy"
INDEX 01 00:00:00
TRACK 02 AUDIO
TITLE "Tracks"
PERFORMER "Andrea Centazzo - Steve Lacy"
INDEX 00 06:32:42
FILE "02 - Tracks.wav" WAVE
INDEX 01 00:00:00
TRACK 03 AUDIO
TITLE "Dome"
PERFORMER "Andrea Centazzo - Steve Lacy"
INDEX 00 09:04:18
FILE "03 - Dome.wav" WAVE
INDEX 01 00:00:00
TRACK 04 AUDIO
TITLE "The New Moon"
PERFORMER "Andrea Centazzo - Steve Lacy"
INDEX 00 06:31:62
FILE "04 - The New Moon.wav" WAVE
INDEX 01 00:00:00
TRACK 05 AUDIO
TITLE "Torments"
PERFORMER "Andrea Centazzo - Steve Lacy"
INDEX 00 06:14:65
FILE "05 - Torments.wav" WAVE
INDEX 01 00:00:00
TRACK 06 AUDIO
TITLE "Ducks"
PERFORMER "Andrea Centazzo - Steve Lacy"
INDEX 00 08:16:07
FILE "06 - Ducks.wav" WAVE
INDEX 01 00:00:00
Доп. информация:
Recorded live February 20, 1976 in concert in Casarsa, Udine, Italy.
Tracks 1-5 previously released as LP ICTUS 001.
 
Об альбоме (by Andrea Centazzo)
I have a vivid memory of the time I first met Steve Lacy in Milan: I had finally the opportunity not only to know but to perform with one of the myths of the avant-garde scene of the time.
As hermetic and polite as his music, Steve was the man who, with his phrase "play what you feel" tore down the curtain that separated my technique from my creativity...
 
Об альбоме (by Eugene Chadbourne)
This album was the label's first release and, more importantly, it was regarded as the most satisfying, if not the first, quality collaboration between an Italian musician and an international jazz great, arousing cheers among an Italian public who had gotten used to their players being treated like second-class citizens, even some kind of musical dogs.
While there are technically better drummers, something about this man's beautifully designed sound equipment and his musical thinking made him a good partner for such unique horn players.
 
Состав
Andrea Centazzo - percussion, drums, vocals
Steve Lacy - soprano saxophone, bird calls, pocket synthesizer
По всем вопросам пишите личное сообщение пользователю M0p94ok.
16:12
265
Нет комментариев. Ваш будет первым!