Вы используете незарегистрированную версию компонента "Вкладки"!

Поиск

(Free Jazz, Avant-Garde, Black Saint) Ed Blackwell Trio - Walls-Bridges (2CDs) - 1997, FLAC (tracks+.cue), lossless

(Free Jazz, Avant-Garde, Black Saint) Ed Blackwell Trio - Walls-Bridges (2CDs) - 1997, FLAC (tracks+.cue), lossless
Треклист:
Ed Blackwell Trio / Walls-Bridges (2CDs)
Жанр: Free Jazz, Avant-Garde, Black Saint
Страна-производитель диска: Italy
Год издания: 1997
Издатель (лейбл): Black Saint
Номер по каталогу: 120153-2
Аудиокодек: FLAC (*.flac)
Тип рипа: tracks+.cue
Битрейт аудио: lossless
Продолжительность: 1:30:04 (50:21 + 39:42)
Источник (релизер): Max Monteiro
Наличие сканов в содержимом раздачи: нет
Треклист:
Disc 1
1. Half Nelson (Miles Davis) 20:55
2. Everything Happens to Me (Thomas Adair / Matt Dennis) 14:22
3. Boo-Boo Doop (Dewey Redman) 15:05
Disc 2
1. Dewey Square (Charlie Parker) 3:44
2. Walls-Bridges (Dewey Redman) 14:51
3. Obeeso (Dewey Redman) 11:26
4. Blues for J. A. M. (Dewey Redman) 6:10
5. Take the « A » Train (Billy Strayhorn) 3:32
Recorded live in concert on February 27, 1992 at Hampden Theatre – University of Massachussetts, Amherst.
Ed Blackwell – Drums
Dewey Redman – Tenor Sax
Cameron Brown – Bass
 
Лог создания рипа
 
Disc 1
Exact Audio Copy V1.0 beta 3 from 29. August 2011
EAC extraction logfile from 16. July 2013, 20:13
Ed Blackwell Trio / Walls-Bridges (Disc 1)
Used drive : SlimtypeeNAU508 5 Adapter: 1 ID: 0
Read mode : Secure
Utilize accurate stream : Yes
Defeat audio cache : Yes
Make use of C2 pointers : No
Read offset correction : 6
Overread into Lead-In and Lead-Out : No
Fill up missing offset samples with silence : Yes
Delete leading and trailing silent blocks : No
Null samples used in CRC calculations : Yes
Used interface : Native Win32 interface for Win NT & 2000
Gap handling : Appended to previous track
Used output format : User Defined Encoder
Selected bitrate : 768 kBit/s
Quality : High
Add ID3 tag : No
Command line compressor : C:\Program Files (x86)\Exact Audio Copy\Flac\flac.exe
Additional command line options : -8 -V -T "ARTIST=%artist%" -T "TITLE=%title%" -T "ALBUM=%albumtitle%" -T "DATE=%year%" -T "TRACKNUMBER=%tracknr%" -T "GENRE=%genre%" -T "PERFORMER=%albuminterpret%" -T "COMPOSER=%composer%" %haslyrics%--tag-from-file=LYRICS="%lyricsfile%"%haslyrics% -T "ALBUMARTIST=%albumartist%" -T "DISCNUMBER=%cdnumber%" -T "TOTALDISCS=%totalcds%" -T "TOTALTRACKS=%numtracks%" -T "COMMENT=%comment%" %source% -o %dest%
TOC of the extracted CD
Track | Start | Length | Start sector | End sector
---------------------------------------------------------
1 | 0:00.00 | 20:55.12 | 0 | 94136
2 | 20:55.12 | 14:21.40 | 94137 | 158751
3 | 35:16.52 | 15:04.55 | 158752 | 226606
Track 1
Filename C:\EAC rips\01 - Half Nelson.wav
Pre-gap length 0:00:02.00
Peak level 85.2 %
Extraction speed 2.8 X
Track quality 100.0 %
Test CRC 22DE91F4
Copy CRC 22DE91F4
Accurately ripped (confidence 3) [EF28B820] (AR v1)
Copy OK
Track 2
Filename C:\EAC rips\02 - Everything Happens to Me.wav
Peak level 80.2 %
Extraction speed 3.4 X
Track quality 99.9 %
Test CRC E2B4810A
Copy CRC E2B4810A
Accurately ripped (confidence 3) [9321F8A7] (AR v1)
Copy OK
Track 3
Filename C:\EAC rips\03 - Boo-Boo Doop.wav
Peak level 85.0 %
Extraction speed 4.1 X
Track quality 100.0 %
Test CRC 01CE3206
Copy CRC 01CE3206
Accurately ripped (confidence 3) [F700D3E9] (AR v1)
Copy OK
All tracks accurately ripped
No errors occurred
End of status report
---- CUETools DB Plugin V2.1.4
[CTDB TOCID: k0jgoDn_vQotUviSrBlhL9Pon.0-] disk not present in database
Submit result: k0jgoDn_vQotUviSrBlhL9Pon.0- has been uploaded
==== Log checksum 7815F59351C70E762C07C7C56BAE4478089AB4E18E657E8A3B19719518C47C7B ====
 
Disc 2
Exact Audio Copy V1.0 beta 3 from 29. August 2011
EAC extraction logfile from 16. July 2013, 21:08
Ed Blackwell Trio / Walls-Bridges (Disc 2)
Used drive : SlimtypeeNAU508 5 Adapter: 1 ID: 0
Read mode : Secure
Utilize accurate stream : Yes
Defeat audio cache : Yes
Make use of C2 pointers : No
Read offset correction : 6
Overread into Lead-In and Lead-Out : No
Fill up missing offset samples with silence : Yes
Delete leading and trailing silent blocks : No
Null samples used in CRC calculations : Yes
Used interface : Native Win32 interface for Win NT & 2000
Gap handling : Appended to previous track
Used output format : User Defined Encoder
Selected bitrate : 768 kBit/s
Quality : High
Add ID3 tag : No
Command line compressor : C:\Program Files (x86)\Exact Audio Copy\Flac\flac.exe
Additional command line options : -8 -V -T "ARTIST=%artist%" -T "TITLE=%title%" -T "ALBUM=%albumtitle%" -T "DATE=%year%" -T "TRACKNUMBER=%tracknr%" -T "GENRE=%genre%" -T "PERFORMER=%albuminterpret%" -T "COMPOSER=%composer%" %haslyrics%--tag-from-file=LYRICS="%lyricsfile%"%haslyrics% -T "ALBUMARTIST=%albumartist%" -T "DISCNUMBER=%cdnumber%" -T "TOTALDISCS=%totalcds%" -T "TOTALTRACKS=%numtracks%" -T "COMMENT=%comment%" %source% -o %dest%
TOC of the extracted CD
Track | Start | Length | Start sector | End sector
---------------------------------------------------------
1 | 0:00.00 | 3:43.70 | 0 | 16794
2 | 3:43.70 | 14:51.02 | 16795 | 83621
3 | 18:34.72 | 11:25.63 | 83622 | 135059
4 | 30:00.60 | 6:09.55 | 135060 | 162789
5 | 36:10.40 | 3:31.72 | 162790 | 178686
Track 1
Filename C:\EAC rips\01 - Dewey Square.wav
Pre-gap length 0:00:02.00
Peak level 99.9 %
Extraction speed 2.1 X
Track quality 100.0 %
Test CRC 15AEDA75
Copy CRC 15AEDA75
Accurately ripped (confidence 3) [C68ECAA8] (AR v1)
Copy OK
Track 2
Filename C:\EAC rips\02 - Walls-Bridges.wav
Peak level 87.2 %
Extraction speed 2.9 X
Track quality 100.0 %
Test CRC 33F32785
Copy CRC 33F32785
Accurately ripped (confidence 3) [D4E5F19A] (AR v1)
Copy OK
Track 3
Filename C:\EAC rips\03 - Obeeso.wav
Peak level 89.3 %
Extraction speed 3.5 X
Track quality 100.0 %
Test CRC CAB3DD56
Copy CRC CAB3DD56
Accurately ripped (confidence 3) [2E6BAC78] (AR v1)
Copy OK
Track 4
Filename C:\EAC rips\04 - Blues for J. A. M..wav
Peak level 92.5 %
Extraction speed 3.7 X
Track quality 100.0 %
Test CRC A4846C82
Copy CRC A4846C82
Accurately ripped (confidence 3) [65483583] (AR v1)
Copy OK
Track 5
Filename C:\EAC rips\05 - Take the ''A'' Train.wav
Peak level 84.5 %
Extraction speed 3.6 X
Track quality 100.0 %
Test CRC 047BDE91
Copy CRC 047BDE91
Accurately ripped (confidence 3) [4BF188FE] (AR v1)
Copy OK
All tracks accurately ripped
No errors occurred
End of status report
---- CUETools DB Plugin V2.1.4
[CTDB TOCID: U1E0XRu.y9vaFE_4gdsUWUhJrNU-] disk not present in database
Submit result: U1E0XRu.y9vaFE_4gdsUWUhJrNU- has been uploaded
==== Log checksum B043E7138CFA7707BBB305B8AAE8B54D1F60D3E8A999AAD0A8B7667AAAC4BCE5 ====
 
Содержание индексной карты (.CUE)
 
Disc 1
REM GENRE Jazz
REM DATE 1997
REM DISCID 1D0BCD03
REM COMMENT "ExactAudioCopy v1.0b3"
PERFORMER "Ed Blackwell Trio"
TITLE "Walls-Bridges (Disc 1)"
FILE "01 - Half Nelson.wav" WAVE
TRACK 01 AUDIO
TITLE "Half Nelson"
PERFORMER "Ed Blackwell Trio"
INDEX 01 00:00:00
FILE "02 - Everything Happens to Me.wav" WAVE
TRACK 02 AUDIO
TITLE "Everything Happens to Me"
PERFORMER "Ed Blackwell Trio"
INDEX 01 00:00:00
FILE "03 - Boo-Boo Doop.wav" WAVE
TRACK 03 AUDIO
TITLE "Boo-Boo Doop"
PERFORMER "Ed Blackwell Trio"
INDEX 01 00:00:00
 
Disc 2
REM GENRE Jazz
REM DATE 1997
REM DISCID 2B094E05
REM COMMENT "ExactAudioCopy v1.0b3"
PERFORMER "Ed Blackwell Trio"
TITLE "Walls-Bridges (Disc 2)"
FILE "01 - Dewey Square.wav" WAVE
TRACK 01 AUDIO
TITLE "Dewey Square"
PERFORMER "Ed Blackwell Trio"
INDEX 01 00:00:00
FILE "02 - Walls-Bridges.wav" WAVE
TRACK 02 AUDIO
TITLE "Walls-Bridges"
PERFORMER "Ed Blackwell Trio"
INDEX 01 00:00:00
FILE "03 - Obeeso.wav" WAVE
TRACK 03 AUDIO
TITLE "Obeeso"
PERFORMER "Ed Blackwell Trio"
INDEX 01 00:00:00
FILE "04 - Blues for J. A. M..wav" WAVE
TRACK 04 AUDIO
TITLE "Blues for J. A. M."
PERFORMER "Ed Blackwell Trio"
INDEX 01 00:00:00
FILE "05 - Take the ''A'' Train.wav" WAVE
TRACK 05 AUDIO
TITLE "Take the 'A' Train"
PERFORMER "Ed Blackwell Trio"
INDEX 01 00:00:00
Any questions -> support@pro-jazz.com. По всем вопросам пишите -> support@pro-jazz.com
16:13
193
Нет комментариев. Ваш будет первым!