Вы используете незарегистрированную версию компонента "Вкладки"!

Поиск

(Avant-Garde, Vocal) Erika Stucky - Lovebites - 2003, FLAC (tracks+.cue), lossless

(Avant-Garde, Vocal) Erika Stucky - Lovebites - 2003, FLAC (tracks+.cue), lossless
Треклист:
Erika Stucky / Lovebites
Жанр: Avant-Garde, Vocal
Страна-производитель диска: Germany
Год издания: 2003
Издатель (лейбл): Traumton Records
Номер по каталогу: 4470
Аудиокодек: FLAC (*.flac)
Тип рипа: tracks+.cue
Битрейт аудио: lossless
Продолжительность: 57:28
Источник (релизер): Max Monteiro
Наличие сканов в содержимом раздачи: нет
Треклист:
01. Stolen Kisses (Erika Stucky) 2:37
02. Wiggle (Erika Stucky) 4:26
03. Angry Man’s Dance (Erika Stucky) 4:13
04. Temptation (Nacio Herb Brown / Arthur Freed) 4:19
05. Tipsy (Erika Stucky) 5:06
06. Trust in Me (Jungle Book) 4:48
07. I’ll See You in My Dreams (Isham Jones / Gus Kahn) 5:19
08. The Manson Look (Erika Stucky, bassline courtesy Marco Raoult) 3:55
09. A Whiter Shade of Pale (Procol Harum) 2:56
10. Lil’ Brother (Erika Stucky) 3:11
11. Love Hurts (Bryant, Boudleaux, bj-line courtesy Schönholzer) 4:49
12. If Six Was Nine (Jimi Hendrix) 4:06
13. Heaven on Earth (Erika Stucky) 7:43
Bonus:
I Want a Man Like Joe Pesci (Erika Stucky / Bertl Mütter / Jon Sass)
Recorded and mixed at Traumton Studios, Berlin. Additional recordings at The Premises, London, and at Inhouse Productions, Basel.
Bertl Mütter – Trombone
Jon Sass – Tuba
Ray Anderson – Trombone / Vocals
Matt Perrine – Sousaphone
Lew Soloff – Trumpet
Knut Jensen – Electronicas, Guitar
Darja Albiker – Violin
Laura Volkwein – Violin
Angelika Yoo – Viola
 
Лог создания рипа
Exact Audio Copy V1.0 beta 3 from 29. August 2011
EAC extraction logfile from 16. July 2013, 22:28
Erika Stucky / Lovebites
Used drive : SlimtypeeNAU508 5 Adapter: 1 ID: 0
Read mode : Secure
Utilize accurate stream : Yes
Defeat audio cache : Yes
Make use of C2 pointers : No
Read offset correction : 6
Overread into Lead-In and Lead-Out : No
Fill up missing offset samples with silence : Yes
Delete leading and trailing silent blocks : No
Null samples used in CRC calculations : Yes
Used interface : Native Win32 interface for Win NT & 2000
Gap handling : Appended to previous track
Used output format : User Defined Encoder
Selected bitrate : 768 kBit/s
Quality : High
Add ID3 tag : No
Command line compressor : C:\Program Files (x86)\Exact Audio Copy\Flac\flac.exe
Additional command line options : -8 -V -T "ARTIST=%artist%" -T "TITLE=%title%" -T "ALBUM=%albumtitle%" -T "DATE=%year%" -T "TRACKNUMBER=%tracknr%" -T "GENRE=%genre%" -T "PERFORMER=%albuminterpret%" -T "COMPOSER=%composer%" %haslyrics%--tag-from-file=LYRICS="%lyricsfile%"%haslyrics% -T "ALBUMARTIST=%albumartist%" -T "DISCNUMBER=%cdnumber%" -T "TOTALDISCS=%totalcds%" -T "TOTALTRACKS=%numtracks%" -T "COMMENT=%comment%" %source% -o %dest%
TOC of the extracted CD
Track | Start | Length | Start sector | End sector
---------------------------------------------------------
1 | 0:00.00 | 2:37.32 | 0 | 11806
2 | 2:37.32 | 4:25.43 | 11807 | 31724
3 | 7:03.00 | 4:13.37 | 31725 | 50736
4 | 11:16.37 | 4:19.13 | 50737 | 70174
5 | 15:35.50 | 5:05.47 | 70175 | 93096
6 | 20:41.22 | 4:47.38 | 93097 | 114659
7 | 25:28.60 | 5:19.37 | 114660 | 138621
8 | 30:48.22 | 3:54.38 | 138622 | 156209
9 | 34:42.60 | 2:56.27 | 156210 | 169436
10 | 37:39.12 | 3:11.18 | 169437 | 183779
11 | 40:50.30 | 4:48.55 | 183780 | 205434
12 | 45:39.10 | 4:06.12 | 205435 | 223896
13 | 49:45.22 | 7:43.05 | 223897 | 258626
Track 1
Filename C:\EAC rips\01 - Stolen Kisses.wav
Pre-gap length 0:00:02.00
Peak level 98.4 %
Extraction speed 1.0 X
Track quality 100.0 %
Test CRC EC78A1CC
Copy CRC EC78A1CC
Accurately ripped (confidence 3) [5A472AEC] (AR v2)
Copy OK
Track 2
Filename C:\EAC rips\02 - Wiggle.wav
Peak level 83.6 %
Extraction speed 1.1 X
Track quality 99.9 %
Test CRC 4596A3F9
Copy CRC 4596A3F9
Accurately ripped (confidence 3) [3AA6DBE7] (AR v2)
Copy OK
Track 3
Filename C:\EAC rips\03 - Angry Man's Dance.wav
Peak level 99.4 %
Extraction speed 1.3 X
Track quality 100.0 %
Test CRC 5A8823A2
Copy CRC 5A8823A2
Accurately ripped (confidence 3) [3D98DE3F] (AR v2)
Copy OK
Track 4
Filename C:\EAC rips\04 - Temptation.wav
Pre-gap length 0:00:02.50
Peak level 98.5 %
Extraction speed 1.4 X
Track quality 100.0 %
Test CRC 38B81F32
Copy CRC 38B81F32
Accurately ripped (confidence 3) [9AE3E34A] (AR v2)
Copy OK
Track 5
Filename C:\EAC rips\05 - Tipsy.wav
Pre-gap length 0:00:01.50
Peak level 100.0 %
Extraction speed 1.6 X
Track quality 100.0 %
Test CRC 9196A456
Copy CRC 9196A456
Accurately ripped (confidence 3) [2377945E] (AR v2)
Copy OK
Track 6
Filename C:\EAC rips\06 - Trust in Me.wav
Pre-gap length 0:00:02.43
Peak level 100.0 %
Extraction speed 1.5 X
Track quality 99.9 %
Test CRC 9F65905A
Copy CRC 9F65905A
Accurately ripped (confidence 3) [23AC5A50] (AR v2)
Copy OK
Track 7
Filename C:\EAC rips\07 - I'll See You in My Dreams.wav
Pre-gap length 0:00:03.10
Peak level 100.0 %
Extraction speed 1.8 X
Track quality 100.0 %
Test CRC 8ECDF0C1
Copy CRC 8ECDF0C1
Accurately ripped (confidence 3) [418CA95C] (AR v2)
Copy OK
Track 8
Filename C:\EAC rips\08 - The Manson Look.wav
Pre-gap length 0:00:02.45
Peak level 100.0 %
Extraction speed 1.8 X
Track quality 100.0 %
Test CRC 73E3AA7C
Copy CRC 73E3AA7C
Accurately ripped (confidence 3) [CE7C97F3] (AR v2)
Copy OK
Track 9
Filename C:\EAC rips\09 - A Whiter Shade of Pale.wav
Pre-gap length 0:00:01.45
Peak level 100.0 %
Extraction speed 1.8 X
Track quality 100.0 %
Test CRC 307C29B0
Copy CRC 307C29B0
Accurately ripped (confidence 3) [8FC3C2AE] (AR v2)
Copy OK
Track 10
Filename C:\EAC rips\10 - Lil' Brother.wav
Pre-gap length 0:00:01.47
Peak level 100.0 %
Extraction speed 1.6 X
Track quality 99.9 %
Test CRC 985EC64B
Copy CRC 985EC64B
Accurately ripped (confidence 3) [7EE6A65E] (AR v2)
Copy OK
Track 11
Filename C:\EAC rips\11 - Love Hurts.wav
Peak level 99.3 %
Extraction speed 2.0 X
Track quality 100.0 %
Test CRC 90007946
Copy CRC 90007946
Accurately ripped (confidence 3) [5334370F] (AR v2)
Copy OK
Track 12
Filename C:\EAC rips\12 - If Six Was Nine.wav
Peak level 100.0 %
Extraction speed 2.1 X
Track quality 100.0 %
Test CRC D430FBA3
Copy CRC D430FBA3
Accurately ripped (confidence 3) [2B5F0BF7] (AR v2)
Copy OK
Track 13
Filename C:\EAC rips\13 - Heaven on Earth - I Want a Man Like Joe Pesci.wav
Pre-gap length 0:00:02.42
Peak level 98.0 %
Extraction speed 2.3 X
Track quality 100.0 %
Test CRC 3246F6D7
Copy CRC 3246F6D7
Accurately ripped (confidence 3) [AC1DC62C] (AR v2)
Copy OK
All tracks accurately ripped
No errors occurred
End of status report
---- CUETools DB Plugin V2.1.4
[CTDB TOCID: TsMSWYmc5OsAjDdTzn0JiZEIaQE-] disk not present in database
Submit result: TsMSWYmc5OsAjDdTzn0JiZEIaQE- has been uploaded
==== Log checksum BB7692BBF19A89848078805AEC69C7A971BBA6F5314710B45E68F99247F07359 ====
 
Содержание индексной карты (.CUE)
REM GENRE Avant-Garde
REM DATE 2003
REM DISCID B30D780D
REM COMMENT "ExactAudioCopy v1.0b3"
PERFORMER "Erika Stucky"
TITLE "Lovebites"
FILE "01 - Stolen Kisses.wav" WAVE
TRACK 01 AUDIO
TITLE "Stolen Kisses"
PERFORMER "Erika Stucky"
ISRC DEE130305601
INDEX 01 00:00:00
FILE "02 - Wiggle.wav" WAVE
TRACK 02 AUDIO
TITLE "Wiggle"
PERFORMER "Erika Stucky"
ISRC DEE130305602
INDEX 01 00:00:00
FILE "03 - Angry Man's Dance.wav" WAVE
TRACK 03 AUDIO
TITLE "Angry Man's Dance"
PERFORMER "Erika Stucky"
ISRC DEE130305603
INDEX 01 00:00:00
TRACK 04 AUDIO
TITLE "Temptation"
PERFORMER "Erika Stucky"
ISRC DEE130305604
INDEX 00 04:10:62
FILE "04 - Temptation.wav" WAVE
INDEX 01 00:00:00
TRACK 05 AUDIO
TITLE "Tipsy"
PERFORMER "Erika Stucky"
ISRC DEE130305605
INDEX 00 04:17:38
FILE "05 - Tipsy.wav" WAVE
INDEX 01 00:00:00
TRACK 06 AUDIO
TITLE "Trust in Me"
PERFORMER "Erika Stucky"
ISRC DEE130305606
INDEX 00 05:03:04
FILE "06 - Trust in Me.wav" WAVE
INDEX 01 00:00:00
TRACK 07 AUDIO
TITLE "I'll See You in My Dreams"
PERFORMER "Erika Stucky"
ISRC DEE130305607
INDEX 00 04:44:28
FILE "07 - I'll See You in My Dreams.wav" WAVE
INDEX 01 00:00:00
TRACK 08 AUDIO
TITLE "The Manson Look"
PERFORMER "Erika Stucky"
ISRC DEE130305608
INDEX 00 05:16:67
FILE "08 - The Manson Look.wav" WAVE
INDEX 01 00:00:00
TRACK 09 AUDIO
TITLE "A Whiter Shade of Pale"
PERFORMER "Erika Stucky"
ISRC DEE130305609
INDEX 00 03:52:68
FILE "09 - A Whiter Shade of Pale.wav" WAVE
INDEX 01 00:00:00
TRACK 10 AUDIO
TITLE "Lil' Brother"
PERFORMER "Erika Stucky"
ISRC DEE130305610
INDEX 00 02:54:55
FILE "10 - Lil' Brother.wav" WAVE
INDEX 01 00:00:00
FILE "11 - Love Hurts.wav" WAVE
TRACK 11 AUDIO
TITLE "Love Hurts"
PERFORMER "Erika Stucky"
ISRC DEE130305611
INDEX 01 00:00:00
FILE "12 - If Six Was Nine.wav" WAVE
TRACK 12 AUDIO
TITLE "If Six Was Nine"
PERFORMER "Erika Stucky"
ISRC DEE130305612
INDEX 01 00:00:00
TRACK 13 AUDIO
TITLE "Heaven on Earth / I Want a Man Like Joe Pesci"
PERFORMER "Erika Stucky"
ISRC DEE130305613
INDEX 00 04:03:45
FILE "13 - Heaven on Earth - I Want a Man Like Joe Pesci.wav" WAVE
INDEX 01 00:00:00
Доп. информация: The bonus song begins after a long time of silence.
 
Состав
1. Stolen Kisses
Maxine – Poem
Matt Perrine – Sousaphone
Knut Jensen – String arr.
2. Wiggle
Matt Perrine – Sousaphone
Lew Soloff – Trumpet
Knut Jensen – Electronicas
Erica Stucky – Accordion, Guitar
3. Angry Man’s Dance
Bertl Mütter – Trombone
Jon Sass – Tuba
Lew Soloff – Trumpet
The Robertson Girls – Poems
Josephine B. – Harp
Knut Jensen – Electronicas & String arr.
4. Temptation
Bertl Mütter – Trombone
Jon Sass – Tuba
Erika Stucky – Vox / Winds
5. Tipsy
Jon Sass – Tuba
Bertl Mütter – Trombone
Knut Jensen – Electronicas & String arr.
6. Trust in Me
Jon Sass – Tuba
Bertl Mütter – Trombone
Knut Jensen – String arr.
7. I’ll See You in My Dreams
Ray Anderson – Trombone / Vox
Matt Perrine – Sousaphone
8. The Manson Look
Josephine B. – Harp
Knut Jensen – Electronicas & arr.
Cadet Orchestra of the Marine Conservatory of Witebsk
9. A Whiter Shade of Pale
Bertl Mütter – Trombone
Jon Sass – Tuba
10. Lil’ Brother
Jon Sass – Tuba
Bertl Mütter – Trommbone
The Jesus’ Blood Boys Choir South Essex
11. Love Hurts
Bertl Mütter – Trombone
Jon Sass – Tuba
Knut Jensen – Guitar
12. If Six Was Nine
« Lame » Sam Jackson – Speaker
Jon Sass – Tuba
Bertl Mütter – Trombone
Lew Soloff – Trumpet
Erika Stucky – All Guitars
(« We rollin ! »: Erika Stucky / Ray Anderson / Matt Perrine)
13. Heaven on Earth
Jon Sass – Tubas
Bertl Mütter – Trombones
Bonus:
I Want a Man Like Joe Pesci
(Erika Stucky in Intercity 590)
По всем вопросам пишите личное сообщение пользователю M0p94ok.
16:14
221
Нет комментариев. Ваш будет первым!