Вы используете незарегистрированную версию компонента "Вкладки"!

Поиск

(Free Jazz, Free Improvisation) Steve Lacy - Maarten Altena - High, Low And Order - 1990, FLAC (tracks+.cue), lossless

(Free Jazz, Free Improvisation) Steve Lacy - Maarten Altena - High, Low And Order - 1990, FLAC (tracks+.cue), lossless
Треклист:
Steve Lacy - Maarten Altena - High, Low And Order
Жанр: Free Jazz, Free Improvisation
Страна-производитель диска: Switzerland
Год издания: 1990
Издатель (лейбл): Hat Hut Records
Номер по каталогу: hat ART CD 6069
Аудиокодек: FLAC (*.flac)
Тип рипа: tracks+.cue
Битрейт аудио: lossless
Продолжительность: 42 min.
Источник (релизер): собственный рип с оригинального диска.
Наличие сканов в содержимом раздачи: да
Треклист:
01. High 2:37
02. Off-Hand 4:30
03. Post 5:47
04. Low 4:05
05. Blush 2:25
06. Inconsistent-Shuffle 6:54
07. Notice 3:35
08. Order 2:02
09. Hop 3:10
10. Breeze 3:54
11. Kiss 2:22
 
Лог создания рипа
Exact Audio Copy V1.0 beta 3 from 29. August 2011
EAC extraction logfile from 28. March 2013, 18:29
Steve Lacy - Maarten Altena / High, Low and Order
Used drive : TSSTcorpCDDVDW SH-S222A Adapter: 1 ID: 0
Read mode : Secure
Utilize accurate stream : Yes
Defeat audio cache : Yes
Make use of C2 pointers : No
Read offset correction : 6
Overread into Lead-In and Lead-Out : No
Fill up missing offset samples with silence : Yes
Delete leading and trailing silent blocks : No
Null samples used in CRC calculations : Yes
Used interface : Native Win32 interface for Win NT & 2000
Gap handling : Appended to previous track
Used output format : User Defined Encoder
Selected bitrate : 1024 kBit/s
Quality : High
Add ID3 tag : No
Command line compressor : C:\Tool\CD\EAC10\FLAC\FLAC.EXE
Additional command line options : -8 -V -T "ARTIST=%artist%" -T "TITLE=%title%" -T "ALBUM=%albumtitle%" -T "DATE=%year%" -T "TRACKNUMBER=%tracknr%" -T "GENRE=%genre%" -T "PERFORMER=%albuminterpret%" -T "COMPOSER=%composer%" %haslyrics%--tag-from-file=LYRICS="%lyricsfile%"%haslyrics% -T "ALBUMARTIST=%albumartist%" -T "ALBUM ARTIST=%albumartist%" -T "DISCNUMBER=%cdnumber%" -T "TOTALDISCS=%totalcds%" -T "TOTALTRACKS=%numtracks%" -T "COMMENT=EAC V1.0 beta 3, Secure Mode, Test & Copy, AccurateRip, FLAC -8" %source% -o %dest%
TOC of the extracted CD
Track | Start | Length | Start sector | End sector
---------------------------------------------------------
1 | 0:00.00 | 2:37.37 | 0 | 11811
2 | 2:37.37 | 4:30.25 | 11812 | 32086
3 | 7:07.62 | 5:47.00 | 32087 | 58111
4 | 12:54.62 | 4:05.00 | 58112 | 76486
5 | 16:59.62 | 2:25.00 | 76487 | 87361
6 | 19:24.62 | 6:54.25 | 87362 | 118436
7 | 26:19.12 | 3:35.00 | 118437 | 134561
8 | 29:54.12 | 2:02.25 | 134562 | 143736
9 | 31:56.37 | 3:10.25 | 143737 | 158011
10 | 35:06.62 | 3:54.25 | 158012 | 175586
11 | 39:01.12 | 2:21.63 | 175587 | 186224
Track 1
Filename C:\! UPLOAD\Steve Lacy - Maarten Altena - High, Low and Order (1990) [FLAC]\01 - High.wav
Pre-gap length 0:00:02.00
Peak level 38.3 %
Extraction speed 3.0 X
Track quality 100.0 %
Test CRC D35A6640
Copy CRC D35A6640
Accurately ripped (confidence 1) [0C407009] (AR v1)
Copy OK
Track 2
Filename C:\! UPLOAD\Steve Lacy - Maarten Altena - High, Low and Order (1990) [FLAC]\02 - Off-Hand.wav
Peak level 86.7 %
Extraction speed 3.3 X
Track quality 100.0 %
Test CRC 193973C0
Copy CRC 193973C0
Accurately ripped (confidence 1) [19800528] (AR v1)
Copy OK
Track 3
Filename C:\! UPLOAD\Steve Lacy - Maarten Altena - High, Low and Order (1990) [FLAC]\03 - Post.wav
Peak level 74.9 %
Extraction speed 3.3 X
Track quality 100.0 %
Test CRC F0790224
Copy CRC F0790224
Accurately ripped (confidence 1) [D7143105] (AR v1)
Copy OK
Track 4
Filename C:\! UPLOAD\Steve Lacy - Maarten Altena - High, Low and Order (1990) [FLAC]\04 - Low.wav
Peak level 23.3 %
Extraction speed 2.8 X
Track quality 99.9 %
Test CRC 2F31961D
Copy CRC 2F31961D
Accurately ripped (confidence 1) [D085E217] (AR v1)
Copy OK
Track 5
Filename C:\! UPLOAD\Steve Lacy - Maarten Altena - High, Low and Order (1990) [FLAC]\05 - Blush.wav
Peak level 48.9 %
Extraction speed 3.0 X
Track quality 100.0 %
Test CRC F7270F8E
Copy CRC F7270F8E
Accurately ripped (confidence 1) [B3E10144] (AR v1)
Copy OK
Track 6
Filename C:\! UPLOAD\Steve Lacy - Maarten Altena - High, Low and Order (1990) [FLAC]\06 - Inconsistent-Shuffle.wav
Peak level 31.2 %
Extraction speed 3.1 X
Track quality 99.9 %
Test CRC EE25955A
Copy CRC EE25955A
Accurately ripped (confidence 1) [57E7C020] (AR v1)
Copy OK
Track 7
Filename C:\! UPLOAD\Steve Lacy - Maarten Altena - High, Low and Order (1990) [FLAC]\07 - Notice.wav
Peak level 82.3 %
Extraction speed 3.1 X
Track quality 100.0 %
Test CRC ED2AAB8D
Copy CRC ED2AAB8D
Accurately ripped (confidence 1) [DD0E3C49] (AR v1)
Copy OK
Track 8
Filename C:\! UPLOAD\Steve Lacy - Maarten Altena - High, Low and Order (1990) [FLAC]\08 - Order.wav
Peak level 95.1 %
Extraction speed 2.9 X
Track quality 100.0 %
Test CRC 7E86D1CF
Copy CRC 7E86D1CF
Accurately ripped (confidence 1) [41384C82] (AR v1)
Copy OK
Track 9
Filename C:\! UPLOAD\Steve Lacy - Maarten Altena - High, Low and Order (1990) [FLAC]\09 - Kiss.wav
Peak level 60.2 %
Extraction speed 3.2 X
Track quality 100.0 %
Test CRC 54B44F80
Copy CRC 54B44F80
Accurately ripped (confidence 1) [909F2A36] (AR v1)
Copy OK
Track 10
Filename C:\! UPLOAD\Steve Lacy - Maarten Altena - High, Low and Order (1990) [FLAC]\10 - Hop.wav
Peak level 70.0 %
Extraction speed 3.2 X
Track quality 100.0 %
Test CRC FA95222B
Copy CRC FA95222B
Accurately ripped (confidence 1) [8953E3B3] (AR v1)
Copy OK
Track 11
Filename C:\! UPLOAD\Steve Lacy - Maarten Altena - High, Low and Order (1990) [FLAC]\11 - Breeze.wav
Peak level 58.6 %
Extraction speed 2.8 X
Track quality 100.0 %
Test CRC 7EA01D85
Copy CRC 7EA01D85
Accurately ripped (confidence 1) [14558BB0] (AR v1)
Copy OK
All tracks accurately ripped
No errors occurred
End of status report
---- CUETools DB Plugin V2.1.3
[CTDB TOCID: txE6Vrb2BJtYErRgcJ8.6aLyGck-] disk not present in database, Submit result: txE6Vrb2BJtYErRgcJ8.6aLyGck- has been uploaded
==== Log checksum 952F998564872C1D7992135651206A59DB167153664CBFEEAB91984F29C048EF ====
 
Содержание индексной карты (.CUE)
REM GENRE Jazz
REM DATE 1990
REM DISCID 9609B30B
REM COMMENT "ExactAudioCopy v1.0b3"
PERFORMER "Steve Lacy - Maarten Altena"
TITLE "High, Low and Order"
FILE "01 - High.wav" WAVE
TRACK 01 AUDIO
TITLE "High"
PERFORMER "Steve Lacy - Maarten Altena"
INDEX 01 00:00:00
FILE "02 - Off-Hand.wav" WAVE
TRACK 02 AUDIO
TITLE "Off-Hand"
PERFORMER "Steve Lacy - Maarten Altena"
INDEX 01 00:00:00
FILE "03 - Post.wav" WAVE
TRACK 03 AUDIO
TITLE "Post"
PERFORMER "Steve Lacy - Maarten Altena"
INDEX 01 00:00:00
FILE "04 - Low.wav" WAVE
TRACK 04 AUDIO
TITLE "Low"
PERFORMER "Steve Lacy - Maarten Altena"
INDEX 01 00:00:00
FILE "05 - Blush.wav" WAVE
TRACK 05 AUDIO
TITLE "Blush"
PERFORMER "Steve Lacy - Maarten Altena"
INDEX 01 00:00:00
FILE "06 - Inconsistent-Shuffle.wav" WAVE
TRACK 06 AUDIO
TITLE "Inconsistent-Shuffle"
PERFORMER "Steve Lacy - Maarten Altena"
INDEX 01 00:00:00
FILE "07 - Notice.wav" WAVE
TRACK 07 AUDIO
TITLE "Notice"
PERFORMER "Steve Lacy - Maarten Altena"
INDEX 01 00:00:00
FILE "08 - Order.wav" WAVE
TRACK 08 AUDIO
TITLE "Order"
PERFORMER "Steve Lacy - Maarten Altena"
INDEX 01 00:00:00
FILE "09 - Kiss.wav" WAVE
TRACK 09 AUDIO
TITLE "Kiss"
PERFORMER "Steve Lacy - Maarten Altena"
INDEX 01 00:00:00
FILE "10 - Hop.wav" WAVE
TRACK 10 AUDIO
TITLE "Hop"
PERFORMER "Steve Lacy - Maarten Altena"
INDEX 01 00:00:00
FILE "11 - Breeze.wav" WAVE
TRACK 11 AUDIO
TITLE "Breeze"
PERFORMER "Steve Lacy - Maarten Altena"
INDEX 01 00:00:00
Доп. информация:
Recorded on December 9 and 10, 1978 at the Shaffy Theater, Amsterdam.
Originally released on Claxon in 1979.
 
Об альбоме (by Thom Jurek)
This 1978 set of recordings over two days at an Amsterdam theater reveals that two musicians who are disciplined enough can also be free enough to improvise completely without regard for structural convention or the force placed upon improvisers from within their own circle to make their music sound "spontaneously composed." In other words, these two cats make some cool-assed noise and could care less if the serious art types dig it or not. Insecurity is not an issue for this pair. These 11 improvisations have titles, but they are of absolutely no consequence and were probably added when the recordings were about to be issued.
High, Low and Order is the sound of two musicians enjoying each other.
This is party music for new music heads.
 
Состав
Steve Lacy - soprano sax
Maarten Van Regteren Altena - bass, cello
Any questions -> support@pro-jazz.com. По всем вопросам пишите -> support@pro-jazz.com
16:14
326
Нет комментариев. Ваш будет первым!