Вы используете незарегистрированную версию компонента "Вкладки"!

Поиск

(Free Jazz) Steve Lacy - Estilhacos - Live in Lisbon - 2012 (1972), FLAC (tracks+.cue), lossless

(Free Jazz) Steve Lacy - Estilhacos - Live in Lisbon - 2012 (1972), FLAC (tracks+.cue), lossless
Треклист:
Steve Lacy / Estilhaços - Live in Lisbon
Жанр: Free Jazz
Страна-производитель диска: Portugal
Год издания: 2012 (1972)
Издатель (лейбл): Clean Feed
Номер по каталогу: CF247CD
Аудиокодек: FLAC (*.flac)
Тип рипа: tracks+.cue
Битрейт аудио: lossless
Продолжительность: 39:09
Источник (релизер): Max Monteiro
Наличие сканов в содержимом раздачи: нет
Треклист:
1. Presentation (by José Duarte) 0:59
2. Stations 6:08
3. Chips / Moon / Dreams 12:56
4. No Baby 8:34
5. The High Way 10:32
All music by Steve Lacy.
Live recording at Cinema Monumental (Lisbon) on the 29th February, 1972.
Steve Lacy – Soprano Sax
Steve Pots – Alto Sax
Irène Aebi – Cello, Transistor Radio, Harmonica
Kent Carter – Bass
Noel McGhie – Drums, Percussions
 
Лог создания рипа
Exact Audio Copy V1.0 beta 3 from 29. August 2011
EAC extraction logfile from 25. June 2013, 18:24
Steve Lacy / Estilhaços - Live in Lisbon
Used drive : SlimtypeeNAU508 5 Adapter: 1 ID: 0
Read mode : Secure
Utilize accurate stream : Yes
Defeat audio cache : Yes
Make use of C2 pointers : No
Read offset correction : 6
Overread into Lead-In and Lead-Out : No
Fill up missing offset samples with silence : Yes
Delete leading and trailing silent blocks : No
Null samples used in CRC calculations : Yes
Used interface : Native Win32 interface for Win NT & 2000
Gap handling : Appended to previous track
Used output format : User Defined Encoder
Selected bitrate : 768 kBit/s
Quality : High
Add ID3 tag : No
Command line compressor : C:\Program Files (x86)\Exact Audio Copy\Flac\flac.exe
Additional command line options : -8 -V -T "ARTIST=%artist%" -T "TITLE=%title%" -T "ALBUM=%albumtitle%" -T "DATE=%year%" -T "TRACKNUMBER=%tracknr%" -T "GENRE=%genre%" -T "PERFORMER=%albuminterpret%" -T "COMPOSER=%composer%" %haslyrics%--tag-from-file=LYRICS="%lyricsfile%"%haslyrics% -T "ALBUMARTIST=%albumartist%" -T "DISCNUMBER=%cdnumber%" -T "TOTALDISCS=%totalcds%" -T "TOTALTRACKS=%numtracks%" -T "COMMENT=%comment%" %source% -o %dest%
TOC of the extracted CD
Track | Start | Length | Start sector | End sector
---------------------------------------------------------
1 | 0:00.00 | 0:59.20 | 0 | 4444
2 | 0:59.20 | 6:07.57 | 4445 | 32026
3 | 7:07.02 | 12:56.23 | 32027 | 90249
4 | 20:03.25 | 8:34.02 | 90250 | 128801
5 | 28:37.27 | 10:31.43 | 128802 | 176169
Track 1
Filename C:\EAC rips\01 - Presentation.wav
Pre-gap length 0:00:02.00
Peak level 62.8 %
Extraction speed 1.5 X
Track quality 100.0 %
Test CRC 298C0596
Copy CRC 298C0596
Accurately ripped (confidence 1) [FDD6AB83] (AR v2)
Copy OK
Track 2
Filename C:\EAC rips\02 - Stations.wav
Pre-gap length 0:00:01.43
Peak level 100.0 %
Extraction speed 2.6 X
Track quality 100.0 %
Test CRC 5B403CEF
Copy CRC 5B403CEF
Accurately ripped (confidence 1) [E5DAFCBC] (AR v2)
Copy OK
Track 3
Filename C:\EAC rips\03 - Chips - Moon - Dreams.wav
Pre-gap length 0:00:04.40
Peak level 99.8 %
Extraction speed 3.2 X
Track quality 100.0 %
Test CRC 420A4DBB
Copy CRC 420A4DBB
Accurately ripped (confidence 1) [4C7ED718] (AR v2)
Copy OK
Track 4
Filename C:\EAC rips\04 - No Baby.wav
Pre-gap length 0:00:01.40
Peak level 100.0 %
Extraction speed 3.6 X
Track quality 100.0 %
Test CRC 06EFE4DE
Copy CRC 06EFE4DE
Accurately ripped (confidence 1) [A4357CB7] (AR v2)
Copy OK
Track 5
Filename C:\EAC rips\05 - The High Way.wav
Pre-gap length 0:00:01.45
Peak level 99.9 %
Extraction speed 4.0 X
Track quality 100.0 %
Test CRC DB2BF057
Copy CRC DB2BF057
Accurately ripped (confidence 1) [55CC8F86] (AR v2)
Copy OK
All tracks accurately ripped
No errors occurred
End of status report
---- CUETools DB Plugin V2.1.4
[CTDB TOCID: WUIB1SGjrZyfKwXB5iboMxBaNEs-] disk not present in database
Submit result: WUIB1SGjrZyfKwXB5iboMxBaNEs- has been uploaded
==== Log checksum D93D1D476B9B4736C59A5EF398264896A988B5515F5D6B09B03D64EF3A1C9BDB ====
 
Содержание индексной карты (.CUE)
REM GENRE Jazz
REM DATE 2012
REM DISCID 32092C05
REM COMMENT "ExactAudioCopy v1.0b3"
PERFORMER "Steve Lacy"
TITLE "Estilhaços - Live in Lisbon"
FILE "01 - Presentation.wav" WAVE
TRACK 01 AUDIO
TITLE "Presentation"
PERFORMER "Steve Lacy"
INDEX 01 00:00:00
TRACK 02 AUDIO
TITLE "Stations"
PERFORMER "Steve Lacy"
INDEX 00 00:57:52
FILE "02 - Stations.wav" WAVE
INDEX 01 00:00:00
TRACK 03 AUDIO
TITLE "Chips / Moon / Dreams"
PERFORMER "Steve Lacy"
INDEX 00 06:03:17
FILE "03 - Chips - Moon - Dreams.wav" WAVE
INDEX 01 00:00:00
TRACK 04 AUDIO
TITLE "No Baby"
PERFORMER "Steve Lacy"
INDEX 00 12:54:58
FILE "04 - No Baby.wav" WAVE
INDEX 01 00:00:00
TRACK 05 AUDIO
TITLE "The High Way"
PERFORMER "Steve Lacy"
INDEX 00 08:32:32
FILE "05 - The High Way.wav" WAVE
INDEX 01 00:00:00
Any questions -> support@pro-jazz.com. По всем вопросам пишите -> support@pro-jazz.com
15:40
218
Нет комментариев. Ваш будет первым!