Вы используете незарегистрированную версию компонента "Вкладки"!

Поиск

(Free Improvisation, Soul Note) Maurizio Giammarco / David Liebman / Daniel Humair / Furio Di Castri - Live at the Big Mama - 2001, FLAC (tracks+.cue), lossless

(Free Improvisation, Soul Note) Maurizio Giammarco / David Liebman / Daniel Humair / Furio Di Castri - Live at the Big Mama - 2001, FLAC (tracks+.cue), lossless
Издатель (лейбл):
Треклист:
Maurizio Giammarco / David Liebman / Daniel Humair / Furio Di Castri / Live at the Big Mama
Жанр: Free Improvisation, Soul Note
Страна-производитель диска: Italy
Год издания: 2001
Издатель (лейбл): Soul Note
Номер по каталогу: 121374-2
Аудиокодек: FLAC (*.flac)
Тип рипа: tracks+.cue
Битрейт аудио: lossless
Продолжительность: 53:36
Источник (релизер): Max Monteiro
Наличие сканов в содержимом раздачи: нет
Треклист:
1. Wild Cats in the House (Giammarco, Liebman, Humair, Di Castri) 7:46
2. Madrugada (F. Di Castri) 8:47
3. Reflections on Roman Walls (Giammarco, Liebman, Humair, Di Castri) 5:30
4. To C or Not to C (M. Giammarco) 7:48
5. Old Man Blues (D. Liebman) 6:50
6. Thoughts of Loss (D. Liebman) 6:13
7. Chickens (M. Giammarco) 10:41
Recorded live at the Big Mama in Rome on January 26-27, 2000.
Maurizio Giammarco – Tenor & Soprano Saxophones
David Liebman – Tenor & Soprano Saxophones
Daniel Humair – Drums
Furio Di Castri – Bass
 
Лог создания рипа
Exact Audio Copy V1.0 beta 3 from 29. August 2011
EAC extraction logfile from 2. July 2013, 19:09
Maurizio Giammarco / David Liebman / Daniel Humair / Furio Di Castri / Live at the Big Mama
Used drive : SlimtypeeNAU508 5 Adapter: 1 ID: 0
Read mode : Secure
Utilize accurate stream : Yes
Defeat audio cache : Yes
Make use of C2 pointers : No
Read offset correction : 6
Overread into Lead-In and Lead-Out : No
Fill up missing offset samples with silence : Yes
Delete leading and trailing silent blocks : No
Null samples used in CRC calculations : Yes
Used interface : Native Win32 interface for Win NT & 2000
Gap handling : Appended to previous track
Used output format : User Defined Encoder
Selected bitrate : 768 kBit/s
Quality : High
Add ID3 tag : No
Command line compressor : C:\Program Files (x86)\Exact Audio Copy\Flac\flac.exe
Additional command line options : -8 -V -T "ARTIST=%artist%" -T "TITLE=%title%" -T "ALBUM=%albumtitle%" -T "DATE=%year%" -T "TRACKNUMBER=%tracknr%" -T "GENRE=%genre%" -T "PERFORMER=%albuminterpret%" -T "COMPOSER=%composer%" %haslyrics%--tag-from-file=LYRICS="%lyricsfile%"%haslyrics% -T "ALBUMARTIST=%albumartist%" -T "DISCNUMBER=%cdnumber%" -T "TOTALDISCS=%totalcds%" -T "TOTALTRACKS=%numtracks%" -T "COMMENT=%comment%" %source% -o %dest%
TOC of the extracted CD
Track | Start | Length | Start sector | End sector
---------------------------------------------------------
1 | 0:00.00 | 7:46.15 | 0 | 34964
2 | 7:46.15 | 8:47.20 | 34965 | 74509
3 | 16:33.35 | 5:29.72 | 74510 | 99256
4 | 22:03.32 | 7:47.45 | 99257 | 134326
5 | 29:51.02 | 6:50.35 | 134327 | 165111
6 | 36:41.37 | 6:13.28 | 165112 | 193114
7 | 42:54.65 | 10:41.07 | 193115 | 241196
Track 1
Filename C:\EAC rips\01 - Wild Cats in the House.wav
Pre-gap length 0:00:02.00
Peak level 99.4 %
Extraction speed 2.3 X
Track quality 100.0 %
Test CRC 5FC200A8
Copy CRC 5FC200A8
Track not present in AccurateRip database
Copy OK
Track 2
Filename C:\EAC rips\02 - Madrugada.wav
Peak level 100.0 %
Extraction speed 2.6 X
Track quality 100.0 %
Test CRC 50FB640E
Copy CRC 50FB640E
Track not present in AccurateRip database
Copy OK
Track 3
Filename C:\EAC rips\03 - Reflections on Roman Walls.wav
Peak level 65.3 %
Extraction speed 3.1 X
Track quality 100.0 %
Test CRC 5E510002
Copy CRC 5E510002
Track not present in AccurateRip database
Copy OK
Track 4
Filename C:\EAC rips\04 - To C or Not to C.wav
Peak level 90.8 %
Extraction speed 3.5 X
Track quality 100.0 %
Test CRC 7B731A4D
Copy CRC 7B731A4D
Track not present in AccurateRip database
Copy OK
Track 5
Filename C:\EAC rips\05 - Old Man Blues.wav
Peak level 77.9 %
Extraction speed 3.7 X
Track quality 100.0 %
Test CRC 29886F8A
Copy CRC 29886F8A
Track not present in AccurateRip database
Copy OK
Track 6
Filename C:\EAC rips\06 - Thoughts of Loss.wav
Peak level 72.0 %
Extraction speed 3.9 X
Track quality 100.0 %
Test CRC C187D03D
Copy CRC C187D03D
Track not present in AccurateRip database
Copy OK
Track 7
Filename C:\EAC rips\07 - Chickens.wav
Peak level 91.1 %
Extraction speed 4.0 X
Track quality 99.9 %
Test CRC B47206FF
Copy CRC B47206FF
Track not present in AccurateRip database
Copy OK
None of the tracks are present in the AccurateRip database
No errors occurred
End of status report
---- CUETools DB Plugin V2.1.4
[CTDB TOCID: eNkgWkXOt5GTqL33rQwgkhPUh34-] disk not present in database
Submit result: eNkgWkXOt5GTqL33rQwgkhPUh34- has been uploaded
==== Log checksum 0D8B38BD413364C2D67D8A13EEAB8BEFDBF4E0F88F748AEA376159B93DFE849C ====
 
Содержание индексной карты (.CUE)
REM GENRE Jazz
REM DATE 2001
REM DISCID 650C8F07
REM COMMENT "ExactAudioCopy v1.0b3"
PERFORMER "Maurizio Giammarco / David Liebman / Daniel Humair / Furio Di Castri"
TITLE "Live at the Big Mama"
FILE "01 - Wild Cats in the House.wav" WAVE
TRACK 01 AUDIO
TITLE "Wild Cats in the House"
PERFORMER "Maurizio Giammarco / David Liebman / Daniel Humair / Furio Di Castri"
INDEX 01 00:00:00
FILE "02 - Madrugada.wav" WAVE
TRACK 02 AUDIO
TITLE "Madrugada"
PERFORMER "Maurizio Giammarco / David Liebman / Daniel Humair / Furio Di Castri"
INDEX 01 00:00:00
FILE "03 - Reflections on Roman Walls.wav" WAVE
TRACK 03 AUDIO
TITLE "Reflections on Roman Walls"
PERFORMER "Maurizio Giammarco / David Liebman / Daniel Humair / Furio Di Castri"
INDEX 01 00:00:00
FILE "04 - To C or Not to C.wav" WAVE
TRACK 04 AUDIO
TITLE "To C or Not to C"
PERFORMER "Maurizio Giammarco / David Liebman / Daniel Humair / Furio Di Castri"
INDEX 01 00:00:00
FILE "05 - Old Man Blues.wav" WAVE
TRACK 05 AUDIO
TITLE "Old Man Blues"
PERFORMER "Maurizio Giammarco / David Liebman / Daniel Humair / Furio Di Castri"
INDEX 01 00:00:00
FILE "06 - Thoughts of Loss.wav" WAVE
TRACK 06 AUDIO
TITLE "Thoughts of Loss"
PERFORMER "Maurizio Giammarco / David Liebman / Daniel Humair / Furio Di Castri"
INDEX 01 00:00:00
FILE "07 - Chickens.wav" WAVE
TRACK 07 AUDIO
TITLE "Chickens"
PERFORMER "Maurizio Giammarco / David Liebman / Daniel Humair / Furio Di Castri"
INDEX 01 00:00:00
Any questions -> support@pro-jazz.com. По всем вопросам пишите -> support@pro-jazz.com
15:41
212
Нет комментариев. Ваш будет первым!