Вы используете незарегистрированную версию компонента "Вкладки"!

Поиск

(Free Jazz, Contemporary Jazz, Free Improvisation, NoBusiness Records) Dominic Duval / Jimmy Halperin / Brian Willson - Music Of John Coltrane - 2009, FLAC (image+.cue), lossless

(Free Jazz, Contemporary Jazz, Free Improvisation, NoBusiness Records) Dominic Duval / Jimmy Halperin / Brian Willson - Music Of John Coltrane - 2009, FLAC (image+.cue), lossless
Треклист:
Dominic Duval - Jimmy Halperin - Brian Willson / Music Of John Coltrane
Жанр: Free Jazz, Contemporary Jazz, Free Improvisation
Страна-производитель диска: Lithuania
Год издания: 2009
Издатель (лейбл): NoBusiness Records
Номер по каталогу: NBCD 17
Аудиокодек: FLAC (*.flac)
Тип рипа: image+.cue
Битрейт аудио: lossless
Продолжительность: 67:58
Источник (релизер): cd
Наличие сканов в содержимом раздачи: нет
Треклист:
1 Giant Steps 10:43
2 Moments Notice 10:13
3 Living Space 11:51
4 Syeeda's Song Flute 9:52
5 Naima 11:16
6 Pursuance / From A Love Supreme 14:06
 
Лог создания рипа
Exact Audio Copy V1.0 beta 2 from 29. April 2011
EAC extraction logfile from 30. June 2013, 14:04
Dominic Duval, Jimmy Halperin, Brian Wilson / Music Of John Coltrane
Used drive : Optiarc DVD RW AD-7170A Adapter: 0 ID: 0
Read mode : Secure
Utilize accurate stream : Yes
Defeat audio cache : Yes
Make use of C2 pointers : No
Read offset correction : 48
Overread into Lead-In and Lead-Out : No
Fill up missing offset samples with silence : Yes
Delete leading and trailing silent blocks : No
Null samples used in CRC calculations : Yes
Used interface : Native Win32 interface for Win NT & 2000
Used output format : User Defined Encoder
Selected bitrate : 320 kBit/s
Quality : High
Add ID3 tag : No
Command line compressor : C:\Program Files\Exact Audio Copy\Flac\flac.exe
Additional command line options : -V -8 -T "Date=%year%" -T "Genre=%genre%" %source%
TOC of the extracted CD
Track | Start | Length | Start sector | End sector
---------------------------------------------------------
1 | 0:00.00 | 10:43.02 | 0 | 48226
2 | 10:43.02 | 10:12.16 | 48227 | 94142
3 | 20:55.18 | 11:49.67 | 94143 | 147384
4 | 32:45.10 | 9:51.58 | 147385 | 191767
5 | 42:36.68 | 11:15.58 | 191768 | 242450
6 | 53:52.51 | 14:05.48 | 242451 | 305873
Range status and errors
Selected range
Filename K:\ЕАС\Dominic Duval, Jimmy Halperin, Brian Wilson - Music Of John Coltrane.wav
Peak level 96.6 %
Extraction speed 2.0 X
Range quality 99.9 %
Test CRC 364DC997
Copy CRC 364DC997
Copy OK
No errors occurred
AccurateRip summary
Track 1 not present in database
Track 2 not present in database
Track 3 not present in database
Track 4 not present in database
Track 5 not present in database
Track 6 not present in database
None of the tracks are present in the AccurateRip database
End of status report
==== Log checksum C34B03B0F36794D9C0E16C39DD696A6CC0863F9C2847DE619280F7DC74E97E72 ====
 
Содержание индексной карты (.CUE)
REM GENRE Jazz
REM DATE 2009
REM DISCID 570FEE06
REM COMMENT "ExactAudioCopy v1.0b2"
PERFORMER "Dominic Duval, Jimmy Halperin, Brian Wilson"
TITLE "Music Of John Coltrane"
FILE "Dominic Duval, Jimmy Halperin, Brian Wilson - Music Of John Coltrane.flac" WAVE
TRACK 01 AUDIO
TITLE "Giant Steps"
PERFORMER "Dominic Duval, Jimmy Halperin, Brian Wilson"
ISRC 000000000000
INDEX 01 00:00:00
TRACK 02 AUDIO
TITLE "Moments Notice"
PERFORMER "Dominic Duval, Jimmy Halperin, Brian Wilson"
ISRC 000000000000
INDEX 00 10:41:02
INDEX 01 10:43:02
TRACK 03 AUDIO
TITLE "Living Space"
PERFORMER "Dominic Duval, Jimmy Halperin, Brian Wilson"
ISRC 000000000000
INDEX 00 20:53:18
INDEX 01 20:55:18
TRACK 04 AUDIO
TITLE "Syeeda’s Song Flute"
PERFORMER "Dominic Duval, Jimmy Halperin, Brian Wilson"
ISRC 000000000000
INDEX 00 32:43:10
INDEX 01 32:45:10
TRACK 05 AUDIO
TITLE "Naima"
PERFORMER "Dominic Duval, Jimmy Halperin, Brian Wilson"
ISRC 000000000000
INDEX 00 42:34:68
INDEX 01 42:36:68
TRACK 06 AUDIO
TITLE "Pursuance / From A Love Supreme"
PERFORMER "Dominic Duval, Jimmy Halperin, Brian Wilson"
ISRC 000000000000
INDEX 00 53:50:51
INDEX 01 53:52:51
Доп. информация: Recorded December 2009 at Parkwest Studios, Brooklyn, New York
 
Состав
Bass – Dominic Duval
Drums – Brian Willson
Tenor Saxophone – Jimmy Halperin
Any questions -> support@pro-jazz.com. По всем вопросам пишите -> support@pro-jazz.com
15:40
187
Нет комментариев. Ваш будет первым!