Вы используете незарегистрированную версию компонента "Вкладки"!

Поиск

( free jazz) Giovanni Falzone Quintet - Around Ornette 2011, FLAC (tracks+.cue), lossless

( free jazz) Giovanni Falzone Quintet - Around Ornette 2011, FLAC (tracks+.cue), lossless
Треклист:


Giovanni Falzone Quintet - Around Ornette 2011

Жанр: free jazz
Год выпуска: 2011
Издатель (лейбл): Parco Della Musica Records / MPR 032CD
Формат: FLAC (tracks+.cue)
Битрейт аудио: lossless
Продолжительность 1`00`42
Источник: what.cd, merzbow1974
Giovanni Falzone - tromba
Francesco Bearzatti - sax tenore
Beppe Caruso - trombone
Paolino Dalla Porta - contrabbasso
Zeno De Rossi - batteria
http://www.jazzitalia.net/recensioni/aroundornette.asp#.UdH_r6zZ7Fw

tracks
1 Blues Connotation
2 Fuga Mentale
3 Lonely Woman
4 Ornette
5 Congeniality
6 Free
7 King Of The Free
8 Bourbon Street


 
.log
Exact Audio Copy V1.0 beta 3 from 29. August 2011
EAC extraction logfile from 26. January 2012, 1:59
Artista Sconosciuto / Titolo Sconosciuto
Used drive : Optiarc DVD RW AD-7240S Adapter: 4 ID: 0
Read mode : Secure
Utilize accurate stream : Yes
Defeat audio cache : Yes
Make use of C2 pointers : No
Read offset correction : 48
Overread into Lead-In and Lead-Out : No
Fill up missing offset samples with silence : Yes
Delete leading and trailing silent blocks : No
Null samples used in CRC calculations : Yes
Used interface : Native Win32 interface for Win NT & 2000
Gap handling : Appended to previous track
Used output format : User Defined Encoder
Selected bitrate : 128 kBit/s
Quality : High
Add ID3 tag : No
Command line compressor : C:\Programmi\Exact Audio Copy\Flac\flac.exe
Additional command line options : -8 -V -T "ARTIST=%artist%" -T "TITLE=%title%" -T "ALBUM=%albumtitle%" -T "DATE=%year%" -T "TRACKNUMBER=%tracknr%" -T "GENRE=%genre%" -T "PERFORMER=%albuminterpret%" -T "COMPOSER=%composer%" %haslyrics%--tag-from-file=LYRICS="%lyricsfile%"%haslyrics% -T "ALBUMARTIST=%albumartist%" -T "ALBUM ARTIST=%albumartist%" -T "DISCNUMBER=%cdnumber%" -T "TOTALDISCS=%totalcds%" -T "TOTALTRACKS=%numtracks%" -T "COMMENT=EAC V1.0 beta 2, Secure Mode, Test & Copy, AccurateRip, FLAC -8" %source% -o %dest%
TOC of the extracted CD
Track | Start | Length | Start sector | End sector
---------------------------------------------------------
1 | 0:00.00 | 5:43.02 | 0 | 25726
2 | 5:43.02 | 8:08.40 | 25727 | 62366
3 | 13:51.42 | 9:49.64 | 62367 | 106605
4 | 23:41.31 | 8:03.33 | 106606 | 142863
5 | 31:44.64 | 7:45.22 | 142864 | 177760
6 | 39:30.11 | 6:05.49 | 177761 | 205184
7 | 45:35.60 | 7:27.43 | 205185 | 238752
8 | 53:03.28 | 7:38.34 | 238753 | 273136
Track 1
Filename D:\what.cd\Falzone Giovanni - Around Ornette - 2011\01 Traccia01.wav
Pre-gap length 0:00:02.00
Peak level 97.2 %
Extraction speed 2.5 X
Track quality 100.0 %
Test CRC C5C401DB
Copy CRC C5C401DB
Track not present in AccurateRip database
Copy OK
Track 2
Filename D:\what.cd\Falzone Giovanni - Around Ornette - 2011\02 Traccia02.wav
Peak level 96.8 %
Extraction speed 3.1 X
Track quality 100.0 %
Test CRC 35DF3BD4
Copy CRC 35DF3BD4
Track not present in AccurateRip database
Copy OK
Track 3
Filename D:\what.cd\Falzone Giovanni - Around Ornette - 2011\03 Traccia03.wav
Peak level 96.4 %
Extraction speed 3.6 X
Track quality 100.0 %
Test CRC EB356DF1
Copy CRC EB356DF1
Track not present in AccurateRip database
Copy OK
Track 4
Filename D:\what.cd\Falzone Giovanni - Around Ornette - 2011\04 Traccia04.wav
Peak level 83.9 %
Extraction speed 4.0 X
Track quality 100.0 %
Test CRC 267AAE00
Copy CRC 267AAE00
Track not present in AccurateRip database
Copy OK
Track 5
Filename D:\what.cd\Falzone Giovanni - Around Ornette - 2011\05 Traccia05.wav
Peak level 97.2 %
Extraction speed 4.4 X
Track quality 100.0 %
Test CRC 512A34ED
Copy CRC 512A34ED
Track not present in AccurateRip database
Copy OK
Track 6
Filename D:\what.cd\Falzone Giovanni - Around Ornette - 2011\06 Traccia06.wav
Peak level 97.2 %
Extraction speed 4.6 X
Track quality 100.0 %
Test CRC 5A780EBA
Copy CRC 5A780EBA
Track not present in AccurateRip database
Copy OK
Track 7
Filename D:\what.cd\Falzone Giovanni - Around Ornette - 2011\07 Traccia07.wav
Peak level 97.2 %
Extraction speed 4.9 X
Track quality 100.0 %
Test CRC B24176DE
Copy CRC B24176DE
Track not present in AccurateRip database
Copy OK
Track 8
Filename D:\what.cd\Falzone Giovanni - Around Ornette - 2011\08 Traccia08.wav
Peak level 97.2 %
Extraction speed 5.2 X
Track quality 100.0 %
Test CRC DB28897D
Copy CRC DB28897D
Track not present in AccurateRip database
Copy OK
None of the tracks are present in the AccurateRip database
No errors occurred
End of status report
==== Log checksum 17833014EADC823F942CE78C7668C62DBA1F5B62ED91314B58AE91A455ECEA89 ====
 
.cue
REM DISCID 680E3908
REM COMMENT "ExactAudioCopy v1.0b3"
PERFORMER "Artista Sconosciuto"
TITLE "Titolo Sconosciuto"
FILE "01 Traccia01.wav" WAVE
TRACK 01 AUDIO
TITLE "Traccia01"
PERFORMER "Artista Sconosciuto"
ISRC ITPDM1100383
INDEX 01 00:00:00
FILE "02 Traccia02.wav" WAVE
TRACK 02 AUDIO
TITLE "Traccia02"
PERFORMER "Artista Sconosciuto"
ISRC ITPDM1100384
INDEX 01 00:00:00
FILE "03 Traccia03.wav" WAVE
TRACK 03 AUDIO
TITLE "Traccia03"
PERFORMER "Artista Sconosciuto"
ISRC ITPDM1100385
INDEX 01 00:00:00
FILE "04 Traccia04.wav" WAVE
TRACK 04 AUDIO
TITLE "Traccia04"
PERFORMER "Artista Sconosciuto"
ISRC ITPDM1100386
INDEX 01 00:00:00
FILE "05 Traccia05.wav" WAVE
TRACK 05 AUDIO
TITLE "Traccia05"
PERFORMER "Artista Sconosciuto"
ISRC ITPDM1100387
INDEX 01 00:00:00
FILE "06 Traccia06.wav" WAVE
TRACK 06 AUDIO
TITLE "Traccia06"
PERFORMER "Artista Sconosciuto"
ISRC ITPDM1100388
INDEX 01 00:00:00
FILE "07 Traccia07.wav" WAVE
TRACK 07 AUDIO
TITLE "Traccia07"
PERFORMER "Artista Sconosciuto"
ISRC ITPDM1100389
INDEX 01 00:00:00
FILE "08 Traccia08.wav" WAVE
TRACK 08 AUDIO
TITLE "Traccia08"
PERFORMER "Artista Sconosciuto"
ISRC ITPDM1100390
INDEX 01 00:00:00
 
.accurip
[CUETools log; Date: 02/07/13 02:26:04; Version: 2.1.4]
[CTDB TOCID: ZBLQuIHRwz7v9pDT972DCqE_VUI-] disk not present in database.
[AccurateRip ID: 0012ce10-007de432-680e3908] found.
Track [ CRC | V2 ] Status
01 [57c78feb|0ec67270] (1+0/1) Accurately ripped
02 [d84e1188|729413df] (1+0/1) Accurately ripped
03 [3a951a04|ad91e28d] (1+0/1) Accurately ripped
04 [fd6adccc|da4204a8] (1+0/1) Accurately ripped
05 [8e97835f|3645d9d0] (1+0/1) Accurately ripped
06 [bba462b0|c419a0ea] (1+0/1) Accurately ripped
07 [839b544a|56a26e1a] (1+0/1) Accurately ripped
08 [7a1d7e39|5a600d91] (1+0/1) Accurately ripped
Track Peak [ CRC32 ] [W/O NULL] [ LOG ]
-- 97.2 [EFD59154] [A51D89BD]
01 97.2 [C5C401DB] [4F3B9B2D] CRC32
02 96.8 [35DF3BD4] [7F9AA08D] CRC32
03 96.4 [EB356DF1] [97E85399] CRC32
04 83.9 [267AAE00] [D25AF279] CRC32
05 97.2 [512A34ED] [464198E7] CRC32
06 97.2 [5A780EBA] [837DC8DE] CRC32
07 97.2 [B24176DE] [F1C77B2C] CRC32
08 97.2 [DB28897D] [5CC1CBFD] CRC32

другие релизы
Any questions -> support@pro-jazz.com. По всем вопросам пишите -> support@pro-jazz.com
15:39
159
Нет комментариев. Ваш будет первым!