Вы используете незарегистрированную версию компонента "Вкладки"!

Поиск

(Free Jazz, Soul Note) Giovanni Falzone Contemporary Ensemble - Big Fracture - 2003, FLAC (tracks+.cue), lossless

(Free Jazz, Soul Note) Giovanni Falzone Contemporary Ensemble - Big Fracture - 2003, FLAC (tracks+.cue), lossless
Издатель (лейбл):
Треклист:
Giovanni Falzone Contemporary Ensemble / Big Fracture
Жанр: Free Jazz, Soul Note
Страна-производитель диска: Italy
Год издания: 2003
Издатель (лейбл): Soul Note
Номер по каталогу: 121378-2
Аудиокодек: FLAC (*.flac)
Тип рипа: tracks+.cue
Битрейт аудио: lossless
Продолжительность: 1:08:22
Источник (релизер): Max Monteiro
Наличие сканов в содержимом раздачи: нет
Треклист:
01. For Frank (take #1) 7:27
02. Anomaly Suite 9:58
03. Fragment 7:42
04. Big Fracture 6:53
05. Cheese 6:53
06. Prow 8:02
07. Pallez 5:05
08. Space 4:41
09. For Frank (take #2 – no intro) 6:03
10. Requiem for Luca 5:38
All compositions by Giovanni Falzone.
Recorded on January 29th, 30th 2003 at Mu-Rec, Milano.
Giovanni Falzone – Trumpet, Cornet & Fluegelhorn
Paolo Botti – Viola
Libero Mureddu – Piano
Tito Mangialajo Rantzer – Double Bass
Cristian Calcagnile – Drums
 
Лог создания рипа
Exact Audio Copy V1.0 beta 3 from 29. August 2011
EAC extraction logfile from 29. June 2013, 14:58
Giovanni Falzone Contemporary Ensemble / Big Fracture
Used drive : SlimtypeeNAU508 5 Adapter: 1 ID: 0
Read mode : Secure
Utilize accurate stream : Yes
Defeat audio cache : Yes
Make use of C2 pointers : No
Read offset correction : 6
Overread into Lead-In and Lead-Out : No
Fill up missing offset samples with silence : Yes
Delete leading and trailing silent blocks : No
Null samples used in CRC calculations : Yes
Used interface : Native Win32 interface for Win NT & 2000
Gap handling : Appended to previous track
Used output format : User Defined Encoder
Selected bitrate : 768 kBit/s
Quality : High
Add ID3 tag : No
Command line compressor : C:\Program Files (x86)\Exact Audio Copy\Flac\flac.exe
Additional command line options : -8 -V -T "ARTIST=%artist%" -T "TITLE=%title%" -T "ALBUM=%albumtitle%" -T "DATE=%year%" -T "TRACKNUMBER=%tracknr%" -T "GENRE=%genre%" -T "PERFORMER=%albuminterpret%" -T "COMPOSER=%composer%" %haslyrics%--tag-from-file=LYRICS="%lyricsfile%"%haslyrics% -T "ALBUMARTIST=%albumartist%" -T "DISCNUMBER=%cdnumber%" -T "TOTALDISCS=%totalcds%" -T "TOTALTRACKS=%numtracks%" -T "COMMENT=%comment%" %source% -o %dest%
TOC of the extracted CD
Track | Start | Length | Start sector | End sector
---------------------------------------------------------
1 | 0:00.00 | 7:27.35 | 0 | 33559
2 | 7:27.35 | 9:57.42 | 33560 | 78376
3 | 17:25.02 | 7:41.50 | 78377 | 113001
4 | 25:06.52 | 6:53.05 | 113002 | 143981
5 | 31:59.57 | 6:52.60 | 143982 | 174941
6 | 38:52.42 | 8:02.18 | 174942 | 211109
7 | 46:54.60 | 5:05.25 | 211110 | 234009
8 | 52:00.10 | 4:40.57 | 234010 | 255066
9 | 56:40.67 | 6:02.48 | 255067 | 282264
10 | 62:43.40 | 5:38.20 | 282265 | 307634
Track 1
Filename C:\EAC rips\01 - For Frank (take #1).wav
Pre-gap length 0:00:02.00
Peak level 99.8 %
Extraction speed 2.5 X
Track quality 100.0 %
Test CRC B9FC98CE
Copy CRC B9FC98CE
Accurately ripped (confidence 1) [736AE20F] (AR v2)
Copy OK
Track 2
Filename C:\EAC rips\02 - Anomaly Suite.wav
Peak level 99.8 %
Extraction speed 3.1 X
Track quality 100.0 %
Test CRC A4917927
Copy CRC A4917927
Accurately ripped (confidence 1) [2BD308B0] (AR v2)
Copy OK
Track 3
Filename C:\EAC rips\03 - Fragment.wav
Peak level 99.8 %
Extraction speed 3.1 X
Track quality 100.0 %
Test CRC 69398C8C
Copy CRC 69398C8C
Accurately ripped (confidence 1) [80D1BEB8] (AR v2)
Copy OK
Track 4
Filename C:\EAC rips\04 - Big Fracture.wav
Peak level 99.8 %
Extraction speed 3.6 X
Track quality 100.0 %
Test CRC 61A9774B
Copy CRC 61A9774B
Accurately ripped (confidence 1) [86B0382F] (AR v2)
Copy OK
Track 5
Filename C:\EAC rips\05 - Cheese.wav
Peak level 99.8 %
Extraction speed 3.9 X
Track quality 100.0 %
Test CRC C4282C8C
Copy CRC C4282C8C
Accurately ripped (confidence 1) [66CCAFB2] (AR v2)
Copy OK
Track 6
Filename C:\EAC rips\06 - Prow.wav
Peak level 99.8 %
Extraction speed 3.6 X
Track quality 100.0 %
Test CRC 5D3498A8
Copy CRC 5D3498A8
Accurately ripped (confidence 1) [7ED02698] (AR v2)
Copy OK
Track 7
Filename C:\EAC rips\07 - Pallez.wav
Peak level 99.8 %
Extraction speed 3.8 X
Track quality 100.0 %
Test CRC 54ED5224
Copy CRC 54ED5224
Accurately ripped (confidence 1) [813D683D] (AR v2)
Copy OK
Track 8
Filename C:\EAC rips\08 - Space.wav
Peak level 99.9 %
Extraction speed 3.3 X
Track quality 100.0 %
Test CRC 07529852
Copy CRC 07529852
Accurately ripped (confidence 1) [1530C11F] (AR v2)
Copy OK
Track 9
Filename C:\EAC rips\09 - For Frank (take #2 - no intro).wav
Peak level 99.8 %
Extraction speed 3.8 X
Track quality 100.0 %
Test CRC 10937C2A
Copy CRC 10937C2A
Accurately ripped (confidence 1) [844842E7] (AR v2)
Copy OK
Track 10
Filename C:\EAC rips\10 - Requiem for Luca.wav
Peak level 99.8 %
Extraction speed 4.9 X
Track quality 100.0 %
Test CRC DD8AF6BA
Copy CRC DD8AF6BA
Accurately ripped (confidence 1) [1C4FEB5F] (AR v2)
Copy OK
All tracks accurately ripped
No errors occurred
End of status report
---- CUETools DB Plugin V2.1.4
[CTDB TOCID: EbDd4KpxaR2DBAvTNsAeUsgJdtw-] disk not present in database
Submit result: EbDd4KpxaR2DBAvTNsAeUsgJdtw- has been uploaded
==== Log checksum A10C0D4ED95E9D0E2B7112A2D55377A180D43795D2A0C3A7F0A0EB8EA9057172 ====
 
Содержание индексной карты (.CUE)
REM GENRE Jazz
REM DATE 2003
REM DISCID 7D10050A
REM COMMENT "ExactAudioCopy v1.0b3"
PERFORMER "Giovanni Falzone Contemporary Ensemble"
TITLE "Big Fracture"
FILE "01 - For Frank (take #1).wav" WAVE
TRACK 01 AUDIO
TITLE "For Frank (take #1)"
PERFORMER "Giovanni Falzone Contemporary Ensemble"
INDEX 01 00:00:00
FILE "02 - Anomaly Suite.wav" WAVE
TRACK 02 AUDIO
TITLE "Anomaly Suite"
PERFORMER "Giovanni Falzone Contemporary Ensemble"
INDEX 01 00:00:00
FILE "03 - Fragment.wav" WAVE
TRACK 03 AUDIO
TITLE "Fragment"
PERFORMER "Giovanni Falzone Contemporary Ensemble"
INDEX 01 00:00:00
FILE "04 - Big Fracture.wav" WAVE
TRACK 04 AUDIO
TITLE "Big Fracture"
PERFORMER "Giovanni Falzone Contemporary Ensemble"
INDEX 01 00:00:00
FILE "05 - Cheese.wav" WAVE
TRACK 05 AUDIO
TITLE "Cheese"
PERFORMER "Giovanni Falzone Contemporary Ensemble"
INDEX 01 00:00:00
FILE "06 - Prow.wav" WAVE
TRACK 06 AUDIO
TITLE "Prow"
PERFORMER "Giovanni Falzone Contemporary Ensemble"
INDEX 01 00:00:00
FILE "07 - Pallez.wav" WAVE
TRACK 07 AUDIO
TITLE "Pallez"
PERFORMER "Giovanni Falzone Contemporary Ensemble"
INDEX 01 00:00:00
FILE "08 - Space.wav" WAVE
TRACK 08 AUDIO
TITLE "Space"
PERFORMER "Giovanni Falzone Contemporary Ensemble"
INDEX 01 00:00:00
FILE "09 - For Frank (take #2 - no intro).wav" WAVE
TRACK 09 AUDIO
TITLE "For Frank (take #2 - no intro)"
PERFORMER "Giovanni Falzone Contemporary Ensemble"
INDEX 01 00:00:00
FILE "10 - Requiem for Luca.wav" WAVE
TRACK 10 AUDIO
TITLE "Requiem for Luca"
PERFORMER "Giovanni Falzone Contemporary Ensemble"
INDEX 01 00:00:00
Any questions -> support@pro-jazz.com. По всем вопросам пишите -> support@pro-jazz.com
15:38
206
Нет комментариев. Ваш будет первым!