Вы используете незарегистрированную версию компонента "Вкладки"!

Поиск

(Free Jazz) Shoji Hano, Peter Brotzmann - Funny Rat/s 3 - 2008, FLAC (tracks+.cue), lossless

(Free Jazz) Shoji Hano, Peter Brotzmann - Funny Rat/s 3 - 2008, FLAC (tracks+.cue), lossless
Треклист:
Shoji Hano, Peter Brötzmann - Funny Rat/s 3
Жанр: Free Jazz
Страна-производитель диска: Japan
Год издания: 2008
Издатель (лейбл): Heart Lord Studio
Номер по каталогу: HLSCD-0006
Аудиокодек: FLAC (*.flac)
Тип рипа: tracks+.cue
Битрейт аудио: lossless
Продолжительность: 58:31
Источник (релизер): CD
Наличие сканов в содержимом раздачи: да
Треклист:
1. Flying Crow (5:52)
2. Asayake (3:42)
3. Out of the Darkness (13:48)
4. On a Dark Path (7:31)
5. I Now Set Out (9:48)
6. Shine on Me (11:11)
7. Moon of the Mountain Edge (8:32)
 
Лог создания рипа
Exact Audio Copy V1.0 beta 2 from 29. April 2011
EAC extraction logfile from 29. October 2013, 19:51
Shoji Hano, Peter Brotzmann / Funny Rat/s 3
Used drive : Optiarc DVD RW AD-5280S Adapter: 1 ID: 1
Read mode : Secure
Utilize accurate stream : Yes
Defeat audio cache : Yes
Make use of C2 pointers : No
Read offset correction : 48
Overread into Lead-In and Lead-Out : No
Fill up missing offset samples with silence : Yes
Delete leading and trailing silent blocks : No
Null samples used in CRC calculations : Yes
Used interface : Installed external ASPI interface
Gap handling : Appended to previous track
Used output format : User Defined Encoder
Selected bitrate : 128 kBit/s
Quality : High
Add ID3 tag : No
Command line compressor : C:\Program Files\FLAC\flac.exe
Additional command line options : -V -8 -T "Genre=%genre%" -T "Artist=%artist%" -T "Title=%title%" -T "Album=%albumtitle%" -T "Date=%year%" -T "Tracknumber=%tracknr%" -T "Comment=%comment%" %source%
TOC of the extracted CD
Track | Start | Length | Start sector | End sector
---------------------------------------------------------
1 | 0:00.00 | 5:45.33 | 0 | 25907
2 | 5:45.33 | 3:39.43 | 25908 | 42375
3 | 9:25.01 | 13:50.14 | 42376 | 104639
4 | 23:15.15 | 7:30.62 | 104640 | 138451
5 | 30:46.02 | 9:52.04 | 138452 | 182855
6 | 40:38.06 | 11:13.69 | 182856 | 233399
7 | 51:52.00 | 6:39.59 | 233400 | 263383
Track 1
Filename C:\Shoji Hano, Peter Brotzmann (2008) - Funny Rat,s 3\01 - Flying Crow.wav
Pre-gap length 0:00:02.00
Peak level 99.5 %
Extraction speed 2.5 X
Track quality 100.0 %
Test CRC 34C31877
Copy CRC 34C31877
Track not present in AccurateRip database
Copy OK
Track 2
Filename C:\Shoji Hano, Peter Brotzmann (2008) - Funny Rat,s 3\02 - Asayake.wav
Peak level 99.9 %
Extraction speed 2.6 X
Track quality 100.0 %
Test CRC 05D71F2F
Copy CRC 05D71F2F
Track not present in AccurateRip database
Copy OK
Track 3
Filename C:\Shoji Hano, Peter Brotzmann (2008) - Funny Rat,s 3\03 - Out of the Darkness.wav
Peak level 99.5 %
Extraction speed 3.5 X
Track quality 100.0 %
Test CRC D22701C6
Copy CRC D22701C6
Track not present in AccurateRip database
Copy OK
Track 4
Filename C:\Shoji Hano, Peter Brotzmann (2008) - Funny Rat,s 3\04 - On a Dark Path.wav
Peak level 99.8 %
Extraction speed 3.7 X
Track quality 99.9 %
Test CRC 9AE92A75
Copy CRC 9AE92A75
Track not present in AccurateRip database
Copy OK
Track 5
Filename C:\Shoji Hano, Peter Brotzmann (2008) - Funny Rat,s 3\05 - I Now Set Out.wav
Peak level 99.8 %
Extraction speed 4.4 X
Track quality 100.0 %
Test CRC F49B6F55
Copy CRC F49B6F55
Track not present in AccurateRip database
Copy OK
Track 6
Filename C:\Shoji Hano, Peter Brotzmann (2008) - Funny Rat,s 3\06 - Shine on Me.wav
Peak level 100.0 %
Extraction speed 4.6 X
Track quality 99.9 %
Test CRC 053B3E2B
Copy CRC 053B3E2B
Track not present in AccurateRip database
Copy OK
Track 7
Filename C:\Shoji Hano, Peter Brotzmann (2008) - Funny Rat,s 3\07 - Moon of the Mountain Edge.wav
Peak level 100.0 %
Extraction speed 5.0 X
Track quality 100.0 %
Test CRC 3DF50E4B
Copy CRC 3DF50E4B
Track not present in AccurateRip database
Copy OK
None of the tracks are present in the AccurateRip database
No errors occurred
End of status report
==== Log checksum BAFB7F95494DF91F7A7FF815A336A93018A1A2C1E0E727A2EA3008460B60566D ====
 
Содержание индексной карты (.CUE)
REM GENRE Jazz
REM DATE 2008
REM DISCID 5E0DB707
REM COMMENT "ExactAudioCopy v1.0b2"
PERFORMER "Shoji Hano, Peter Brotzmann"
TITLE "Funny Rat/s 3"
FILE "01 - Flying Crow.wav" WAVE
TRACK 01 AUDIO
TITLE "Flying Crow"
PERFORMER "Shoji Hano, Peter Brotzmann"
ISRC 000000000000
INDEX 01 00:00:00
FILE "02 - Asayake.wav" WAVE
TRACK 02 AUDIO
TITLE "Asayake"
PERFORMER "Shoji Hano, Peter Brotzmann"
ISRC 000000000000
INDEX 01 00:00:00
FILE "03 - Out of the Darkness.wav" WAVE
TRACK 03 AUDIO
TITLE "Out of the Darkness"
PERFORMER "Shoji Hano, Peter Brotzmann"
ISRC 000000000000
INDEX 01 00:00:00
FILE "04 - On a Dark Path.wav" WAVE
TRACK 04 AUDIO
TITLE "On a Dark Path"
PERFORMER "Shoji Hano, Peter Brotzmann"
ISRC 000000000000
INDEX 01 00:00:00
FILE "05 - I Now Set Out.wav" WAVE
TRACK 05 AUDIO
TITLE "I Now Set Out"
PERFORMER "Shoji Hano, Peter Brotzmann"
ISRC 000000000000
INDEX 01 00:00:00
FILE "06 - Shine on Me.wav" WAVE
TRACK 06 AUDIO
TITLE "Shine on Me"
PERFORMER "Shoji Hano, Peter Brotzmann"
ISRC 000000000000
INDEX 01 00:00:00
FILE "07 - Moon of the Mountain Edge.wav" WAVE
TRACK 07 AUDIO
TITLE "Moon of the Mountain Edge"
PERFORMER "Shoji Hano, Peter Brotzmann"
ISRC 000000000000
INDEX 01 00:00:00
 
Об альбоме (сборнике)
All music by Peter Brötzmann and Shoji Hano
Recorded by Kunimoto Ibara at Heart Lord Studio, Hiroshima, May 8, 2008
Mastered by Kunimoto Ibara
Design by Peter Brötzmann and Nana Koike
Photos by Peter Brötzmann and Shoji Hano
Produced by Ibara Kunimoto, Shinobu Goto, and Shoji Hano
Includes liner notes in Japanese by Satoshi Kawamata
Released in October 2008
 
Состав
Peter Brötzmann - b-flat clarinet, alto saxophone, tenor saxophone
Shoji Hano - drums
По всем вопросам пишите личное сообщение пользователю M0p94ok.
19:38
207
Нет комментариев. Ваш будет первым!