Вы используете незарегистрированную версию компонента "Вкладки"!

Поиск

(Avant-Garde, Free Improvisation, Delmark Records) Bright Moments (Joseph Jarman, Kalaparusha Maurice McIntyre, Adegoke Steve Colson, Malachi Favors, Kahil El'Zabar) - Return of the Lost Tribe - 1998, FLAC (tracks+.cue), lossless

(Avant-Garde, Free Improvisation, Delmark Records) Bright Moments (Joseph Jarman, Kalaparusha Maurice McIntyre, Adegoke Steve Colson, Malachi Favors, Kahil El'Zabar) - Return of the Lost Tribe - 1998, FLAC (tracks+.cue), lossless
Треклист:
Bright Moments / Return of the Lost Tribe
Жанр: Avant-Garde, Free Improvisation, Delmark Records
Страна-производитель диска: U.S.A.
Год издания: 1998
Издатель (лейбл): Delmark Records
Номер по каталогу: DE-507
Аудиокодек: FLAC (*.flac)
Тип рипа: tracks+.cue
Битрейт аудио: lossless
Продолжительность: 1:01:20
Источник (релизер): я
Наличие сканов в содержимом раздачи: да
Треклист:
1. Return of the Lost Tribe (Kahil El’Zabar) 10:13
2. Song of Joy for the Predestined (Joseph Jarman) 8:10
3. Kudus (Joseph Jarman) 8:41
4. Dance’m (Kahil El’Zabar) 8:29
5. Fragmentation – Prayer at Twilight (Adegoke Steve Colson) 8:06
6. Ornette (Kahil El’Zabar) 8:04
7. Dream Of (Kalaparusha Maurice McIntyre) 9:38
Recorded at Riverside Studio, Chicago, IL on December 21 & 22, 1997.
Joseph Jarman – Alto Sax, Flute, Recitation on 3
Kalaparusha Maurice McIntyre – Tenor Sax
Adegoke Steve Colson – Piano
Malachi Favors – Bass
Kahil El’Zabar – Drums, Percussion, Voice on 3
 
Лог создания рипа
Exact Audio Copy V1.0 beta 3 from 29. August 2011
EAC extraction logfile from 29. October 2013, 11:51
Bright Moments / Return of the Lost Tribe
Used drive : SlimtypeeNAU508 5 Adapter: 1 ID: 0
Read mode : Secure
Utilize accurate stream : Yes
Defeat audio cache : Yes
Make use of C2 pointers : No
Read offset correction : 6
Overread into Lead-In and Lead-Out : No
Fill up missing offset samples with silence : Yes
Delete leading and trailing silent blocks : No
Null samples used in CRC calculations : Yes
Used interface : Native Win32 interface for Win NT & 2000
Gap handling : Appended to previous track
Used output format : User Defined Encoder
Selected bitrate : 768 kBit/s
Quality : High
Add ID3 tag : No
Command line compressor : C:\Program Files (x86)\Exact Audio Copy\Flac\flac.exe
Additional command line options : -8 -V -T "ARTIST=%artist%" -T "TITLE=%title%" -T "ALBUM=%albumtitle%" -T "DATE=%year%" -T "TRACKNUMBER=%tracknr%" -T "GENRE=%genre%" -T "PERFORMER=%albuminterpret%" -T "COMPOSER=%composer%" %haslyrics%--tag-from-file=LYRICS="%lyricsfile%"%haslyrics% -T "ALBUMARTIST=%albumartist%" -T "DISCNUMBER=%cdnumber%" -T "TOTALDISCS=%totalcds%" -T "TOTALTRACKS=%numtracks%" -T "COMMENT=%comment%" %source% -o %dest%
TOC of the extracted CD
Track | Start | Length | Start sector | End sector
---------------------------------------------------------
1 | 0:00.00 | 10:12.55 | 0 | 45954
2 | 10:12.55 | 8:10.07 | 45955 | 82711
3 | 18:22.62 | 8:40.45 | 82712 | 121756
4 | 27:03.32 | 8:29.10 | 121757 | 159941
5 | 35:32.42 | 8:05.40 | 159942 | 196356
6 | 43:38.07 | 8:04.25 | 196357 | 232681
7 | 51:42.32 | 9:37.40 | 232682 | 275996
Track 1
Filename C:\EAC rips\01 - Return of the Lost Tribe.wav
Pre-gap length 0:00:02.00
Peak level 100.0 %
Extraction speed 2.5 X
Track quality 100.0 %
Test CRC 1EFFBAB7
Copy CRC 1EFFBAB7
Accurately ripped (confidence 3) [F3753A34] (AR v2)
Copy OK
Track 2
Filename C:\EAC rips\02 - Song of Joy for the Predestined.wav
Pre-gap length 0:00:03.08
Peak level 99.8 %
Extraction speed 2.9 X
Track quality 100.0 %
Test CRC C69C0165
Copy CRC C69C0165
Accurately ripped (confidence 3) [5D9B182C] (AR v2)
Copy OK
Track 3
Filename C:\EAC rips\03 - Kudus.wav
Pre-gap length 0:00:03.17
Peak level 96.6 %
Extraction speed 3.3 X
Track quality 100.0 %
Test CRC 62739AB8
Copy CRC 62739AB8
Accurately ripped (confidence 3) [0BBB4A12] (AR v2)
Copy OK
Track 4
Filename C:\EAC rips\04 - Dance'm.wav
Pre-gap length 0:00:03.05
Peak level 99.9 %
Extraction speed 3.7 X
Track quality 100.0 %
Test CRC 468D4137
Copy CRC 468D4137
Accurately ripped (confidence 2) [3B952171] (AR v2)
Copy OK
Track 5
Filename C:\EAC rips\05 - Fragmentation - Prayer at Twilight.wav
Pre-gap length 0:00:03.40
Peak level 99.9 %
Extraction speed 4.0 X
Track quality 100.0 %
Test CRC CDC1F6F5
Copy CRC CDC1F6F5
Accurately ripped (confidence 3) [54ABED96] (AR v2)
Copy OK
Track 6
Filename C:\EAC rips\06 - Ornette.wav
Pre-gap length 0:00:03.07
Peak level 100.0 %
Extraction speed 4.2 X
Track quality 100.0 %
Test CRC 7B2C7B29
Copy CRC 7B2C7B29
Accurately ripped (confidence 2) [724CE0D3] (AR v2)
Copy OK
Track 7
Filename C:\EAC rips\07 - Dream Of.wav
Pre-gap length 0:00:03.22
Peak level 87.9 %
Extraction speed 4.6 X
Track quality 100.0 %
Test CRC 3F2020B8
Copy CRC 3F2020B8
Accurately ripped (confidence 2) [49BE9BA7] (AR v2)
Copy OK
All tracks accurately ripped
No errors occurred
End of status report
---- CUETools DB Plugin V2.1.4
[CTDB TOCID: rZXFe74Uh7Z_rbnEoCeuEycruKU-] disk not present in database
Submit result: rZXFe74Uh7Z_rbnEoCeuEycruKU- has been uploaded
==== Log checksum E1F039CA3720FCC1A46E2500F5F3A74F55E178CD265D2D23A9BD26CEFACEB94B ====
 
Содержание индексной карты (.CUE)
REM GENRE Jazz
REM DATE 1998
REM DISCID 3D0E5F07
REM COMMENT "ExactAudioCopy v1.0b3"
PERFORMER "Bright Moments"
TITLE "Return of the Lost Tribe"
FILE "01 - Return of the Lost Tribe.wav" WAVE
TRACK 01 AUDIO
TITLE "Return of the Lost Tribe"
PERFORMER "Bright Moments"
INDEX 01 00:00:00
TRACK 02 AUDIO
TITLE "Song of Joy for the Predestined"
PERFORMER "Bright Moments"
INDEX 00 10:09:47
FILE "02 - Song of Joy for the Predestined.wav" WAVE
INDEX 01 00:00:00
TRACK 03 AUDIO
TITLE "Kudus"
PERFORMER "Bright Moments"
INDEX 00 08:06:65
FILE "03 - Kudus.wav" WAVE
INDEX 01 00:00:00
TRACK 04 AUDIO
TITLE "Dance'm"
PERFORMER "Bright Moments"
INDEX 00 08:37:40
FILE "04 - Dance'm.wav" WAVE
INDEX 01 00:00:00
TRACK 05 AUDIO
TITLE "Fragmentation - Prayer at Twilight"
PERFORMER "Bright Moments"
INDEX 00 08:25:45
FILE "05 - Fragmentation - Prayer at Twilight.wav" WAVE
INDEX 01 00:00:00
TRACK 06 AUDIO
TITLE "Ornette"
PERFORMER "Bright Moments"
INDEX 00 08:02:33
FILE "06 - Ornette.wav" WAVE
INDEX 01 00:00:00
TRACK 07 AUDIO
TITLE "Dream Of"
PERFORMER "Bright Moments"
INDEX 00 08:01:03
FILE "07 - Dream Of.wav" WAVE
INDEX 01 00:00:00
По всем вопросам пишите личное сообщение пользователю M0p94ok.
19:39
383
Нет комментариев. Ваш будет первым!