Вы используете незарегистрированную версию компонента "Вкладки"!

Поиск

(Avant-Garde, Free Improvisation, Winter & Winter) Marc Ducret - (detail) - 1997, FLAC (tracks+.cue), lossless

(Avant-Garde, Free Improvisation, Winter & Winter) Marc Ducret - (detail) - 1997, FLAC (tracks+.cue), lossless
Треклист:
Marc Ducret / (détail)
Жанр: Avant-Garde, Free Improvisation, Winter & Winter
Страна-производитель диска: Germany
Год издания: 1997
Издатель (лейбл): Winter & Winter
Номер по каталогу: 910 003-2
Аудиокодек: FLAC (*.flac)
Тип рипа: tracks+.cue
Битрейт аудио: lossless
Продолжительность: 43:43
Источник (релизер): я
Наличие сканов в содержимом раздачи: нет
Треклист:
1. Le Décor 5:14
2. Le Relief 7:05
3. Le Puits 7:57
4. (détail) 5:18
5. Asile 5:18
6. Ma plus belle histoire d’amour 6:43
7. Sept Familles 6:08
All songs written by Marc Ducret.
Recorded at Villa Medici-Guilini, Brinaza, Italy January 20 through 23, 1996.
Marc Ducret – Six and Twelve String Guitars
 
Лог создания рипа
Exact Audio Copy V1.0 beta 3 from 29. August 2011
EAC extraction logfile from 12. October 2013, 14:14
Marc Ducret / (détail)
Used drive : SlimtypeeNAU508 5 Adapter: 1 ID: 0
Read mode : Secure
Utilize accurate stream : Yes
Defeat audio cache : Yes
Make use of C2 pointers : No
Read offset correction : 6
Overread into Lead-In and Lead-Out : No
Fill up missing offset samples with silence : Yes
Delete leading and trailing silent blocks : No
Null samples used in CRC calculations : Yes
Used interface : Native Win32 interface for Win NT & 2000
Gap handling : Appended to previous track
Used output format : User Defined Encoder
Selected bitrate : 768 kBit/s
Quality : High
Add ID3 tag : No
Command line compressor : C:\Program Files (x86)\Exact Audio Copy\Flac\flac.exe
Additional command line options : -8 -V -T "ARTIST=%artist%" -T "TITLE=%title%" -T "ALBUM=%albumtitle%" -T "DATE=%year%" -T "TRACKNUMBER=%tracknr%" -T "GENRE=%genre%" -T "PERFORMER=%albuminterpret%" -T "COMPOSER=%composer%" %haslyrics%--tag-from-file=LYRICS="%lyricsfile%"%haslyrics% -T "ALBUMARTIST=%albumartist%" -T "DISCNUMBER=%cdnumber%" -T "TOTALDISCS=%totalcds%" -T "TOTALTRACKS=%numtracks%" -T "COMMENT=%comment%" %source% -o %dest%
TOC of the extracted CD
Track | Start | Length | Start sector | End sector
---------------------------------------------------------
1 | 0:00.00 | 5:14.30 | 0 | 23579
2 | 5:14.30 | 7:04.72 | 23580 | 55451
3 | 12:19.27 | 7:57.08 | 55452 | 91234
4 | 20:16.35 | 5:17.47 | 91235 | 115056
5 | 25:34.07 | 5:18.18 | 115057 | 138924
6 | 30:52.25 | 6:42.40 | 138925 | 169114
7 | 37:34.65 | 6:07.70 | 169115 | 196709
Track 1
Filename C:\EAC rips\01 - Le Décor.wav
Pre-gap length 0:00:02.00
Peak level 99.5 %
Extraction speed 1.7 X
Track quality 99.9 %
Test CRC DEAE280F
Copy CRC DEAE280F
Accurately ripped (confidence 5) [7696F0EA] (AR v2)
Copy OK
Track 2
Filename C:\EAC rips\02 - Le Relief.wav
Pre-gap length 0:00:01.50
Peak level 100.0 %
Extraction speed 2.3 X
Track quality 99.9 %
Test CRC CE4CEB83
Copy CRC CE4CEB83
Accurately ripped (confidence 5) [18286EEB] (AR v2)
Copy OK
Track 3
Filename C:\EAC rips\03 - Le Puits.wav
Pre-gap length 0:00:02.57
Peak level 97.9 %
Extraction speed 2.7 X
Track quality 99.9 %
Test CRC C9FA50D0
Copy CRC C9FA50D0
Accurately ripped (confidence 5) [440D7438] (AR v2)
Copy OK
Track 4
Filename C:\EAC rips\04 - (détail).wav
Pre-gap length 0:00:03.38
Peak level 98.8 %
Extraction speed 3.2 X
Track quality 100.0 %
Test CRC 14B3CDF5
Copy CRC 14B3CDF5
Accurately ripped (confidence 5) [A92EA4D6] (AR v2)
Copy OK
Track 5
Filename C:\EAC rips\05 - Asile.wav
Pre-gap length 0:00:03.05
Peak level 89.1 %
Extraction speed 3.4 X
Track quality 100.0 %
Test CRC 3D4032B0
Copy CRC 3D4032B0
Accurately ripped (confidence 5) [BDFB785A] (AR v2)
Copy OK
Track 6
Filename C:\EAC rips\06 - Ma plus belle histoire d'amour.wav
Pre-gap length 0:00:03.58
Peak level 98.8 %
Extraction speed 3.6 X
Track quality 100.0 %
Test CRC FF2C28DC
Copy CRC FF2C28DC
Accurately ripped (confidence 5) [49A9A0A2] (AR v2)
Copy OK
Track 7
Filename C:\EAC rips\07 - Sept Familles.wav
Pre-gap length 0:00:03.63
Peak level 98.8 %
Extraction speed 3.9 X
Track quality 100.0 %
Test CRC 7AA71DF8
Copy CRC 7AA71DF8
Accurately ripped (confidence 5) [DEF49DFF] (AR v2)
Copy OK
All tracks accurately ripped
No errors occurred
End of status report
---- CUETools DB Plugin V2.1.4
[CTDB TOCID: iQV_7l_Cm9xkZJD5p43FED86fTQ-] disk not present in database
Submit result: iQV_7l_Cm9xkZJD5p43FED86fTQ- has been uploaded
==== Log checksum CFB46EFDB6CFA9E1D631B440FDBD0447A028867D8879C8E7848DD01D316D003F ====
 
Содержание индексной карты (.CUE)
REM GENRE Jazz
REM DATE 1997
REM DISCID 540A3E07
REM COMMENT "ExactAudioCopy v1.0b3"
PERFORMER "Marc Ducret"
TITLE "(détail)"
FILE "01 - Le Décor.wav" WAVE
TRACK 01 AUDIO
TITLE "Le Décor"
PERFORMER "Marc Ducret"
ISRC DEA299600100
INDEX 01 00:00:00
TRACK 02 AUDIO
TITLE "Le Relief"
PERFORMER "Marc Ducret"
ISRC DEA299600200
INDEX 00 05:12:55
FILE "02 - Le Relief.wav" WAVE
INDEX 01 00:00:00
TRACK 03 AUDIO
TITLE "Le Puits"
PERFORMER "Marc Ducret"
ISRC DEA299600300
INDEX 00 07:02:15
FILE "03 - Le Puits.wav" WAVE
INDEX 01 00:00:00
TRACK 04 AUDIO
TITLE "(détail)"
PERFORMER "Marc Ducret"
ISRC DEA299600400
INDEX 00 07:53:45
FILE "04 - (détail).wav" WAVE
INDEX 01 00:00:00
TRACK 05 AUDIO
TITLE "Asile"
PERFORMER "Marc Ducret"
ISRC DEA299600500
INDEX 00 05:14:42
FILE "05 - Asile.wav" WAVE
INDEX 01 00:00:00
TRACK 06 AUDIO
TITLE "Ma plus belle histoire d'amour"
PERFORMER "Marc Ducret"
ISRC DEA299600600
INDEX 00 05:14:35
FILE "06 - Ma plus belle histoire d'amour.wav" WAVE
INDEX 01 00:00:00
TRACK 07 AUDIO
TITLE "Sept Familles"
PERFORMER "Marc Ducret"
ISRC DEA299600700
INDEX 00 06:38:52
FILE "07 - Sept Familles.wav" WAVE
INDEX 01 00:00:00
Any questions -> support@pro-jazz.com. По всем вопросам пишите -> support@pro-jazz.com
19:39
209
Нет комментариев. Ваш будет первым!