Вы используете незарегистрированную версию компонента "Вкладки"!

Поиск

(Free Jazz, Plainisphare) BBFC (Jean-Francois Bovard - Daniel Bourquin - Leon Francioli - Olivier Clerc) - Souvenir d'Italie - 1985, FLAC (tracks+.cue), lossless

(Free Jazz, Plainisphare) BBFC (Jean-Francois Bovard - Daniel Bourquin - Leon Francioli - Olivier Clerc) - Souvenir d'Italie - 1985, FLAC (tracks+.cue), lossless
Треклист:
BBFC / Souvenir d'Italie
Жанр: Free Jazz, Plainisphare
Страна-производитель диска: Switzerland
Год издания: 1985
Издатель (лейбл): Plainisphare
Номер по каталогу: PL 1267-19 CD
Аудиокодек: FLAC (*.flac)
Тип рипа: tracks+.cue
Битрейт аудио: lossless
Продолжительность: 37:40
Источник (релизер): я
Наличие сканов в содержимом раздачи: нет
Треклист:
01. Souvenir d’Italie (Léon Francioli) 9:05
02. Soufflé sentimental (Daniel Bourquin) 3:17
03. Les Dessous de l’opéra (Jean-François Bovard – Léon Francioli) 3:13
04. Expulsion (Léon Francioli) 2:30
05. Le Petit Chose (Daniel Bourquin) 1:39
06. Le Professionnel (Léon Francioli) 5:06
07. Le Bal des ptérodactyles (Léon Francioli) 3:56
08. En attendant la pluie (Léon Francioli) 2:24
09. Le Marché de Bogota (Léon Francioli) 2:51
10. Quasimodo (Léon Francioli) 3:38
Enregisté à Mountain Studio (Montreux, Switzerland) du 15 au 23 octobre 1985.
Jean-François Bovard – trombones alto et ténor baroque, ténor, basse, tuba, voix, cascades
Daniel Bourquin – saxophones sopranino, alto, ténor, baryton, clarinette, clarinette basse, trompette préparée, voix
Léon Francioli – contrebasses, violon, piano, orgue Hammond, cloches, timbales, xylophone, voix
Olivier Clerc – batterie, grosse caisse d’orchestre, tambour de Bâle, caisse claire, tarole, cuica, timbales, voix
 
Лог создания рипа
Exact Audio Copy V1.0 beta 3 from 29. August 2011
EAC extraction logfile from 27. October 2013, 13:14
BBFC / Souvenir d'Italie
Used drive : SlimtypeeNAU508 5 Adapter: 1 ID: 0
Read mode : Secure
Utilize accurate stream : Yes
Defeat audio cache : Yes
Make use of C2 pointers : No
Read offset correction : 6
Overread into Lead-In and Lead-Out : No
Fill up missing offset samples with silence : Yes
Delete leading and trailing silent blocks : No
Null samples used in CRC calculations : Yes
Used interface : Native Win32 interface for Win NT & 2000
Gap handling : Appended to previous track
Used output format : User Defined Encoder
Selected bitrate : 768 kBit/s
Quality : High
Add ID3 tag : No
Command line compressor : C:\Program Files (x86)\Exact Audio Copy\Flac\flac.exe
Additional command line options : -8 -V -T "ARTIST=%artist%" -T "TITLE=%title%" -T "ALBUM=%albumtitle%" -T "DATE=%year%" -T "TRACKNUMBER=%tracknr%" -T "GENRE=%genre%" -T "PERFORMER=%albuminterpret%" -T "COMPOSER=%composer%" %haslyrics%--tag-from-file=LYRICS="%lyricsfile%"%haslyrics% -T "ALBUMARTIST=%albumartist%" -T "DISCNUMBER=%cdnumber%" -T "TOTALDISCS=%totalcds%" -T "TOTALTRACKS=%numtracks%" -T "COMMENT=%comment%" %source% -o %dest%
TOC of the extracted CD
Track | Start | Length | Start sector | End sector
---------------------------------------------------------
1 | 0:00.33 | 9:05.25 | 33 | 40932
2 | 9:05.58 | 3:17.07 | 40933 | 55714
3 | 12:22.65 | 3:13.00 | 55715 | 70189
4 | 15:35.65 | 2:30.28 | 70190 | 81467
5 | 18:06.18 | 1:38.45 | 81468 | 88862
6 | 19:44.63 | 5:06.20 | 88863 | 111832
7 | 24:51.08 | 3:55.62 | 111833 | 129519
8 | 28:46.70 | 2:24.28 | 129520 | 140347
9 | 31:11.23 | 2:50.65 | 140348 | 153162
10 | 34:02.13 | 3:38.02 | 153163 | 169514
Track 1
Filename C:\EAC rips\01 - Souvenir d'Italie.wav
Pre-gap length 0:00:02.33
Peak level 73.6 %
Extraction speed 1.2 X
Track quality 100.0 %
Test CRC 9D92B5DE
Copy CRC 9D92B5DE
Accurately ripped (confidence 1) [B7AFF73A] (AR v2)
Copy OK
Track 2
Filename C:\EAC rips\02 - Soufflé sentimental.wav
Peak level 41.9 %
Extraction speed 1.2 X
Track quality 100.0 %
Test CRC 2D1D00A8
Copy CRC 2D1D00A8
Accurately ripped (confidence 1) [182069F0] (AR v2)
Copy OK
Track 3
Filename C:\EAC rips\03 - Les Dessous de l'opéra.wav
Peak level 68.7 %
Extraction speed 1.3 X
Track quality 100.0 %
Test CRC A1C42E1B
Copy CRC A1C42E1B
Accurately ripped (confidence 1) [CAE7E351] (AR v2)
Copy OK
Track 4
Filename C:\EAC rips\04 - Expulsion.wav
Peak level 78.1 %
Extraction speed 1.1 X
Track quality 99.9 %
Test CRC 24B1AF90
Copy CRC 24B1AF90
Accurately ripped (confidence 1) [94C4943C] (AR v2)
Copy OK
Track 5
Filename C:\EAC rips\05 - Le Petit Chose.wav
Peak level 29.1 %
Extraction speed 0.9 X
Track quality 99.8 %
Test CRC F2544A70
Copy CRC F2544A70
Accurately ripped (confidence 1) [095F5B93] (AR v2)
Copy OK
Track 6
Filename C:\EAC rips\06 - Le Professionnel.wav
Pre-gap length 0:00:04.00
Peak level 90.3 %
Extraction speed 1.6 X
Track quality 100.0 %
Test CRC C93E5463
Copy CRC C93E5463
Accurately ripped (confidence 1) [D3569711] (AR v2)
Copy OK
Track 7
Filename C:\EAC rips\07 - Le Bal des ptérodactyles.wav
Peak level 83.3 %
Extraction speed 1.6 X
Track quality 100.0 %
Test CRC 3B85FBCF
Copy CRC 3B85FBCF
Accurately ripped (confidence 1) [4C8C9366] (AR v2)
Copy OK
Track 8
Filename C:\EAC rips\08 - En attendant la pluie.wav
Peak level 39.0 %
Extraction speed 1.5 X
Track quality 100.0 %
Test CRC D09398B4
Copy CRC D09398B4
Accurately ripped (confidence 1) [B01D8F1F] (AR v2)
Copy OK
Track 9
Filename C:\EAC rips\09 - Le Marché de Bogota.wav
Peak level 58.0 %
Extraction speed 1.7 X
Track quality 100.0 %
Test CRC 48EC22A3
Copy CRC 48EC22A3
Accurately ripped (confidence 1) [5D77E103] (AR v2)
Copy OK
Track 10
Filename C:\EAC rips\10 - Quasimodo.wav
Peak level 76.8 %
Extraction speed 1.8 X
Track quality 100.0 %
Test CRC 5480C107
Copy CRC 5480C107
Accurately ripped (confidence 1) [A52147A6] (AR v2)
Copy OK
All tracks accurately ripped
No errors occurred
End of status report
---- CUETools DB Plugin V2.1.4
[CTDB TOCID: PDlAtnYEdVSYDTuciXwDKaWQ0yo-] disk not present in database
Submit result: PDlAtnYEdVSYDTuciXwDKaWQ0yo- has been uploaded
==== Log checksum 7F9E9CDC4784EB7CEE66C3BF3F5D2204895C9CA7B90497AE9EB8A38B1AF3D34C ====
 
Содержание индексной карты (.CUE)
REM GENRE Jazz
REM DATE 1985
REM DISCID 9508D40A
REM COMMENT "ExactAudioCopy v1.0b3"
PERFORMER "BBFC"
TITLE "Souvenir d'Italie"
FILE "01 - Souvenir d'Italie.wav" WAVE
TRACK 01 AUDIO
TITLE "Souvenir d'Italie"
PERFORMER "BBFC"
FLAGS PRE
PREGAP 00:00:33
INDEX 01 00:00:00
FILE "02 - Soufflé sentimental.wav" WAVE
TRACK 02 AUDIO
TITLE "Soufflé sentimental"
PERFORMER "BBFC"
FLAGS PRE
INDEX 01 00:00:00
FILE "03 - Les Dessous de l'opéra.wav" WAVE
TRACK 03 AUDIO
TITLE "Les Dessous de l'opéra"
PERFORMER "BBFC"
FLAGS PRE
INDEX 01 00:00:00
FILE "04 - Expulsion.wav" WAVE
TRACK 04 AUDIO
TITLE "Expulsion"
PERFORMER "BBFC"
FLAGS PRE
INDEX 01 00:00:00
FILE "05 - Le Petit Chose.wav" WAVE
TRACK 05 AUDIO
TITLE "Le Petit Chose"
PERFORMER "BBFC"
FLAGS PRE
INDEX 01 00:00:00
TRACK 06 AUDIO
TITLE "Le Professionnel"
PERFORMER "BBFC"
FLAGS PRE
INDEX 00 01:34:45
FILE "06 - Le Professionnel.wav" WAVE
INDEX 01 00:00:00
FILE "07 - Le Bal des ptérodactyles.wav" WAVE
TRACK 07 AUDIO
TITLE "Le Bal des ptérodactyles"
PERFORMER "BBFC"
FLAGS PRE
INDEX 01 00:00:00
FILE "08 - En attendant la pluie.wav" WAVE
TRACK 08 AUDIO
TITLE "En attendant la pluie"
PERFORMER "BBFC"
FLAGS PRE
INDEX 01 00:00:00
FILE "09 - Le Marché de Bogota.wav" WAVE
TRACK 09 AUDIO
TITLE "Le Marché de Bogota"
PERFORMER "BBFC"
FLAGS PRE
INDEX 01 00:00:00
FILE "10 - Quasimodo.wav" WAVE
TRACK 10 AUDIO
TITLE "Quasimodo"
PERFORMER "BBFC"
FLAGS PRE
INDEX 01 00:00:00
Доп. информация: That album came with pre-emphasis flags. You must have "foo_deemph" installed in foobar2000 for playing it correctly.
Any questions -> support@pro-jazz.com. По всем вопросам пишите -> support@pro-jazz.com
19:37
197
Нет комментариев. Ваш будет первым!