Вы используете незарегистрированную версию компонента "Вкладки"!

Поиск

(Avant-Garde, Winter & Winter) Joey Baron (with Ellery Eskelin and Steve Swell) - Tongue in Groove - 2004 (1992), FLAC (tracks+.cue), lossless

(Avant-Garde, Winter & Winter) Joey Baron (with Ellery Eskelin and Steve Swell) - Tongue in Groove - 2004 (1992), FLAC (tracks+.cue), lossless
Треклист:
Joey Baron / Tongue in Groove
Жанр: Avant-Garde, Winter & Winter
Страна-производитель диска: Germany
Год издания: 2004 (1992)
Издатель (лейбл): Winter & Winter
Номер по каталогу: 919 056-2
Аудиокодек: FLAC (*.flac)
Тип рипа: tracks+.cue
Битрейт аудио: lossless
Продолжительность: 55:53
Источник (релизер): я
Наличие сканов в содержимом раздачи: front + back + CD
Треклист:
01. Blinky 3:19
02. Yow 1:48
03. Terra Bina Kia Jeena (trad., arr. Joey Baron) 6:31
04. Guzzle 3:38
05. Oops 3:27
06. But, Cake 5:30
07. Archives 3:15
08. The Shadow of Your Smile (Johnny Mandel) 1:39
09. Room Service 4:58
10. I Want a Little Girl (Murray Mencher / Billy Moll) 4:24
11. Sandbox 1:39
12. Response 4:09
13. Trunk 2:19
14. Go 3:12
15. Scottie Pippen 2:22
16. Mr. Prentension 0:37
All compositions by Joey Baron except where indicated.
Recorded at Sorcerer Sound, NYC, May 1st, 1991.
Joey Baron – Drums
Ellery Eskelin – Tenor Saxophone
Steve Swell – Trombone
 
Лог создания рипа
Exact Audio Copy V1.0 beta 3 from 29. August 2011
EAC extraction logfile from 26. October 2013, 13:35
Joey Baron / Tongue in Groove
Used drive : SlimtypeeNAU508 5 Adapter: 1 ID: 0
Read mode : Secure
Utilize accurate stream : Yes
Defeat audio cache : Yes
Make use of C2 pointers : No
Read offset correction : 6
Overread into Lead-In and Lead-Out : No
Fill up missing offset samples with silence : Yes
Delete leading and trailing silent blocks : No
Null samples used in CRC calculations : Yes
Used interface : Native Win32 interface for Win NT & 2000
Gap handling : Appended to previous track
Used output format : User Defined Encoder
Selected bitrate : 768 kBit/s
Quality : High
Add ID3 tag : No
Command line compressor : C:\Program Files (x86)\Exact Audio Copy\Flac\flac.exe
Additional command line options : -8 -V -T "ARTIST=%artist%" -T "TITLE=%title%" -T "ALBUM=%albumtitle%" -T "DATE=%year%" -T "TRACKNUMBER=%tracknr%" -T "GENRE=%genre%" -T "PERFORMER=%albuminterpret%" -T "COMPOSER=%composer%" %haslyrics%--tag-from-file=LYRICS="%lyricsfile%"%haslyrics% -T "ALBUMARTIST=%albumartist%" -T "DISCNUMBER=%cdnumber%" -T "TOTALDISCS=%totalcds%" -T "TOTALTRACKS=%numtracks%" -T "COMMENT=%comment%" %source% -o %dest%
TOC of the extracted CD
Track | Start | Length | Start sector | End sector
---------------------------------------------------------
1 | 0:00.00 | 3:18.65 | 0 | 14914
2 | 3:18.65 | 1:47.61 | 14915 | 23000
3 | 5:06.51 | 6:31.08 | 23001 | 52333
4 | 11:37.59 | 3:38.11 | 52334 | 68694
5 | 15:15.70 | 3:27.14 | 68695 | 84233
6 | 18:43.09 | 5:29.44 | 84234 | 108952
7 | 24:12.53 | 3:14.40 | 108953 | 123542
8 | 27:27.18 | 1:39.33 | 123543 | 131000
9 | 29:06.51 | 4:57.71 | 131001 | 153346
10 | 34:04.47 | 4:24.21 | 153347 | 173167
11 | 38:28.68 | 1:38.38 | 173168 | 180555
12 | 40:07.31 | 4:09.09 | 180556 | 199239
13 | 44:16.40 | 2:18.68 | 199240 | 209657
14 | 46:35.33 | 3:11.69 | 209658 | 224051
15 | 49:47.27 | 2:21.71 | 224052 | 234697
16 | 52:09.23 | 0:36.51 | 234698 | 237448
Track 1
Filename C:\EAC rips\01 - Blinky.wav
Pre-gap length 0:00:02.00
Peak level 98.0 %
Extraction speed 1.6 X
Track quality 99.9 %
Test CRC 8DF91E48
Copy CRC 8DF91E48
Accurately ripped (confidence 1) [7A6A1900] (AR v2)
Copy OK
Track 2
Filename C:\EAC rips\02 - Yow.wav
Peak level 98.0 %
Extraction speed 1.9 X
Track quality 100.0 %
Test CRC C3686E64
Copy CRC C3686E64
Accurately ripped (confidence 1) [3C860F31] (AR v2)
Copy OK
Track 3
Filename C:\EAC rips\03 - Terra Bina Kia Jeena.wav
Pre-gap length 0:00:00.71
Peak level 98.0 %
Extraction speed 2.3 X
Track quality 99.9 %
Test CRC 973F4DC0
Copy CRC 973F4DC0
Accurately ripped (confidence 1) [0DE9272B] (AR v2)
Copy OK
Track 4
Filename C:\EAC rips\04 - Guzzle.wav
Pre-gap length 0:00:00.39
Peak level 98.0 %
Extraction speed 2.2 X
Track quality 99.9 %
Test CRC 3951B899
Copy CRC 3951B899
Accurately ripped (confidence 1) [7F2615D3] (AR v2)
Copy OK
Track 5
Filename C:\EAC rips\05 - Oops.wav
Pre-gap length 0:00:00.70
Peak level 98.0 %
Extraction speed 2.8 X
Track quality 100.0 %
Test CRC F0E58B49
Copy CRC F0E58B49
Accurately ripped (confidence 1) [C64EAB59] (AR v2)
Copy OK
Track 6
Filename C:\EAC rips\06 - But, Cake.wav
Pre-gap length 0:00:00.73
Peak level 98.0 %
Extraction speed 3.2 X
Track quality 100.0 %
Test CRC 1897B16A
Copy CRC 1897B16A
Accurately ripped (confidence 2) [40572369] (AR v1)
Copy OK
Track 7
Filename C:\EAC rips\07 - Archives.wav
Pre-gap length 0:00:00.62
Peak level 98.0 %
Extraction speed 2.5 X
Track quality 99.9 %
Test CRC F72ED250
Copy CRC F72ED250
Accurately ripped (confidence 2) [4FB0F50D] (AR v1)
Copy OK
Track 8
Filename C:\EAC rips\08 - The Shadow of Your Smile.wav
Pre-gap length 0:00:01.02
Peak level 98.0 %
Extraction speed 2.8 X
Track quality 100.0 %
Test CRC 068C9CD9
Copy CRC 068C9CD9
Accurately ripped (confidence 2) [9F6C4064] (AR v1)
Copy OK
Track 9
Filename C:\EAC rips\09 - Room Service.wav
Pre-gap length 0:00:01.07
Peak level 98.0 %
Extraction speed 3.5 X
Track quality 100.0 %
Test CRC 55F2E4A2
Copy CRC 55F2E4A2
Accurately ripped (confidence 2) [C7556BF0] (AR v1)
Copy OK
Track 10
Filename C:\EAC rips\10 - I Want a Little Girl.wav
Pre-gap length 0:00:01.12
Peak level 98.0 %
Extraction speed 3.0 X
Track quality 99.9 %
Test CRC 6509B5C5
Copy CRC 6509B5C5
Accurately ripped (confidence 2) [49498734] (AR v1)
Copy OK
Track 11
Filename C:\EAC rips\11 - Sandbox.wav
Pre-gap length 0:00:01.10
Peak level 91.8 %
Extraction speed 2.5 X
Track quality 100.0 %
Test CRC 38D554D0
Copy CRC 38D554D0
Accurately ripped (confidence 1) [9FB119D3] (AR v2)
Copy OK
Track 12
Filename C:\EAC rips\12 - Response.wav
Pre-gap length 0:00:01.09
Peak level 78.8 %
Extraction speed 3.8 X
Track quality 100.0 %
Test CRC EAE0C70D
Copy CRC EAE0C70D
Accurately ripped (confidence 2) [8BF719AF] (AR v1)
Copy OK
Track 13
Filename C:\EAC rips\13 - Trunk.wav
Pre-gap length 0:00:00.74
Peak level 98.0 %
Extraction speed 3.5 X
Track quality 100.0 %
Test CRC B5545052
Copy CRC B5545052
Accurately ripped (confidence 1) [C9F26606] (AR v2)
Copy OK
Track 14
Filename C:\EAC rips\14 - Go.wav
Pre-gap length 0:00:00.73
Peak level 98.0 %
Extraction speed 3.1 X
Track quality 99.9 %
Test CRC E80996FA
Copy CRC E80996FA
Accurately ripped (confidence 2) [2A658805] (AR v1)
Copy OK
Track 15
Filename C:\EAC rips\15 - Scottie Pippen.wav
Pre-gap length 0:00:01.11
Peak level 98.0 %
Extraction speed 3.7 X
Track quality 100.0 %
Test CRC 7201ADE9
Copy CRC 7201ADE9
Accurately ripped (confidence 1) [B6145BC5] (AR v2)
Copy OK
Track 16
Filename C:\EAC rips\16 - Mr. Pretension.wav
Pre-gap length 0:00:01.20
Peak level 18.6 %
Extraction speed 2.3 X
Track quality 100.0 %
Test CRC 9FDFE870
Copy CRC 9FDFE870
Accurately ripped (confidence 1) [9F8D98A8] (AR v2)
Copy OK
All tracks accurately ripped
No errors occurred
End of status report
---- CUETools DB Plugin V2.1.4
[CTDB TOCID: Jg0sEoFpr4APyuB_6tOPSBfTLNg-] disk not present in database
Submit result: Jg0sEoFpr4APyuB_6tOPSBfTLNg- has been uploaded
==== Log checksum AD70F9FBE296E6645305DB75A6392C9AFDCEE666EC5214F9E96D29D07C7F3B10 ====
 
Содержание индексной карты (.CUE)
REM GENRE Jazz
REM DATE 2004
REM DISCID EA0C5D10
REM COMMENT "ExactAudioCopy v1.0b3"
PERFORMER "Joey Baron"
TITLE "Tongue in Groove"
FILE "01 - Blinky.wav" WAVE
TRACK 01 AUDIO
TITLE "Blinky"
PERFORMER "Joey Baron"
INDEX 01 00:00:00
FILE "02 - Yow.wav" WAVE
TRACK 02 AUDIO
TITLE "Yow"
PERFORMER "Joey Baron"
INDEX 01 00:00:00
TRACK 03 AUDIO
TITLE "Terra Bina Kia Jeena"
PERFORMER "Joey Baron"
INDEX 00 01:46:65
FILE "03 - Terra Bina Kia Jeena.wav" WAVE
INDEX 01 00:00:00
TRACK 04 AUDIO
TITLE "Guzzle"
PERFORMER "Joey Baron"
INDEX 00 06:30:44
FILE "04 - Guzzle.wav" WAVE
INDEX 01 00:00:00
TRACK 05 AUDIO
TITLE "Oops"
PERFORMER "Joey Baron"
INDEX 00 03:37:16
FILE "05 - Oops.wav" WAVE
INDEX 01 00:00:00
TRACK 06 AUDIO
TITLE "But, Cake"
PERFORMER "Joey Baron"
INDEX 00 03:26:16
FILE "06 - But, Cake.wav" WAVE
INDEX 01 00:00:00
TRACK 07 AUDIO
TITLE "Archives"
PERFORMER "Joey Baron"
INDEX 00 05:28:57
FILE "07 - Archives.wav" WAVE
INDEX 01 00:00:00
TRACK 08 AUDIO
TITLE "The Shadow of Your Smile"
PERFORMER "Joey Baron"
INDEX 00 03:13:38
FILE "08 - The Shadow of Your Smile.wav" WAVE
INDEX 01 00:00:00
TRACK 09 AUDIO
TITLE "Room Service"
PERFORMER "Joey Baron"
INDEX 00 01:38:26
FILE "09 - Room Service.wav" WAVE
INDEX 01 00:00:00
TRACK 10 AUDIO
TITLE "I Want a Little Girl"
PERFORMER "Joey Baron"
INDEX 00 04:56:59
FILE "10 - I Want a Little Girl.wav" WAVE
INDEX 01 00:00:00
TRACK 11 AUDIO
TITLE "Sandbox"
PERFORMER "Joey Baron"
INDEX 00 04:23:11
FILE "11 - Sandbox.wav" WAVE
INDEX 01 00:00:00
TRACK 12 AUDIO
TITLE "Response"
PERFORMER "Joey Baron"
INDEX 00 01:37:29
FILE "12 - Response.wav" WAVE
INDEX 01 00:00:00
TRACK 13 AUDIO
TITLE "Trunk"
PERFORMER "Joey Baron"
INDEX 00 04:08:10
FILE "13 - Trunk.wav" WAVE
INDEX 01 00:00:00
TRACK 14 AUDIO
TITLE "Go"
PERFORMER "Joey Baron"
INDEX 00 02:17:70
FILE "14 - Go.wav" WAVE
INDEX 01 00:00:00
TRACK 15 AUDIO
TITLE "Scottie Pippen"
PERFORMER "Joey Baron"
INDEX 00 03:10:58
FILE "15 - Scottie Pippen.wav" WAVE
INDEX 01 00:00:00
TRACK 16 AUDIO
TITLE "Mr. Pretension"
PERFORMER "Joey Baron"
INDEX 00 02:20:51
FILE "16 - Mr. Pretension.wav" WAVE
INDEX 01 00:00:00
Any questions -> support@pro-jazz.com. По всем вопросам пишите -> support@pro-jazz.com
19:37
240
Нет комментариев. Ваш будет первым!