Вы используете незарегистрированную версию компонента "Вкладки"!

Поиск

(Contemporary Jazz, Free Improvisation, Plainisphare) D. M. Visotzky & Francois Volpe - One Eyed Cat - 1988, FLAC (tracks+.cue), lossless

(Contemporary Jazz, Free Improvisation, Plainisphare) D. M. Visotzky & Francois Volpe - One Eyed Cat - 1988, FLAC (tracks+.cue), lossless
Треклист:
D. M. Visotzky & François Volpé / One Eyed Cat
Жанр: Contemporary Jazz, Free Improvisation, Plainisphare
Страна-производитель диска: Switzerland
Год издания: 1988
Издатель (лейбл): Plainisphare
Номер по каталогу: PL 1267–37 CD
Аудиокодек: FLAC (*.flac)
Тип рипа: tracks+.cue
Битрейт аудио: lossless
Продолжительность: 51:52
Источник (релизер): я
Наличие сканов в содержимом раздачи: нет
Треклист:
1. One Eyed Cat (D. M. Visotzky / François Volpé) 4:07
2. Nakano Eki (D. M. Visotzky) 7:22
3. Valsette (François Volpé) 5:10
4. A Morning in Your Eyes (to Aki) (D. M. Visotzky) 7:36
5. Stone Head (François Volpé) 7:02
6. La Forme du désert (1. Leuto ad libitium – 2. Andante – 3. Largo ad libitum) (François Volpé) 9:13
7. Black and White Memories (François Volpé) 4:51
8. Ballade (dedicated to Nicole) (François Volpé) 6:31
Recorded at Axis Studio (Geneva, Switzerland) in December 1987 and January 1988.
D. M. Visotzky – Alto Saxophone
François Volpé – Vibraphone, Marimba, Percussions and Synthetiser
 
Лог создания рипа
Exact Audio Copy V1.0 beta 3 from 29. August 2011
EAC extraction logfile from 22. October 2013, 12:04
D. M. Visotzky & Francois Volpé / One Eyed Cat
Used drive : SlimtypeeNAU508 5 Adapter: 1 ID: 0
Read mode : Secure
Utilize accurate stream : Yes
Defeat audio cache : Yes
Make use of C2 pointers : No
Read offset correction : 6
Overread into Lead-In and Lead-Out : No
Fill up missing offset samples with silence : Yes
Delete leading and trailing silent blocks : No
Null samples used in CRC calculations : Yes
Used interface : Native Win32 interface for Win NT & 2000
Gap handling : Appended to previous track
Used output format : User Defined Encoder
Selected bitrate : 768 kBit/s
Quality : High
Add ID3 tag : No
Command line compressor : C:\Program Files (x86)\Exact Audio Copy\Flac\flac.exe
Additional command line options : -8 -V -T "ARTIST=%artist%" -T "TITLE=%title%" -T "ALBUM=%albumtitle%" -T "DATE=%year%" -T "TRACKNUMBER=%tracknr%" -T "GENRE=%genre%" -T "PERFORMER=%albuminterpret%" -T "COMPOSER=%composer%" %haslyrics%--tag-from-file=LYRICS="%lyricsfile%"%haslyrics% -T "ALBUMARTIST=%albumartist%" -T "DISCNUMBER=%cdnumber%" -T "TOTALDISCS=%totalcds%" -T "TOTALTRACKS=%numtracks%" -T "COMMENT=%comment%" %source% -o %dest%
TOC of the extracted CD
Track | Start | Length | Start sector | End sector
---------------------------------------------------------
1 | 0:00.00 | 4:07.37 | 0 | 18561
2 | 4:07.37 | 7:21.38 | 18562 | 51674
3 | 11:29.00 | 5:10.25 | 51675 | 74949
4 | 16:39.25 | 7:36.25 | 74950 | 109174
5 | 24:15.50 | 7:01.50 | 109175 | 140799
6 | 31:17.25 | 9:12.62 | 140800 | 182261
7 | 40:30.12 | 4:50.63 | 182262 | 204074
8 | 45:21.00 | 6:30.45 | 204075 | 233369
Track 1
Filename C:\EAC rips\01 - One Eyed Cat.wav
Pre-gap length 0:00:02.00
Peak level 55.3 %
Extraction speed 1.0 X
Track quality 100.0 %
Test CRC BD430FBC
Copy CRC BD430FBC
Track not present in AccurateRip database
Copy OK
Track 2
Filename C:\EAC rips\02 - Nakano Eki.wav
Pre-gap length 0:00:03.00
Peak level 62.8 %
Extraction speed 1.3 X
Track quality 100.0 %
Test CRC CBAD4AFC
Copy CRC CBAD4AFC
Track not present in AccurateRip database
Copy OK
Track 3
Filename C:\EAC rips\03 - Valsette.wav
Pre-gap length 0:00:03.00
Peak level 53.2 %
Extraction speed 1.4 X
Track quality 100.0 %
Test CRC A7B85562
Copy CRC A7B85562
Track not present in AccurateRip database
Copy OK
Track 4
Filename C:\EAC rips\04 - A Morning in Your Eyes (to Aki).wav
Pre-gap length 0:00:03.00
Peak level 46.6 %
Extraction speed 1.6 X
Track quality 100.0 %
Test CRC 5D559151
Copy CRC 5D559151
Track not present in AccurateRip database
Copy OK
Track 5
Filename C:\EAC rips\05 - Stone Head.wav
Pre-gap length 0:00:03.00
Peak level 59.5 %
Extraction speed 1.8 X
Track quality 100.0 %
Test CRC FF50214A
Copy CRC FF50214A
Track not present in AccurateRip database
Copy OK
Track 6
Filename C:\EAC rips\06 - La Forme du désert (Leuto ad libitum - Andante - Largo ad libitum).wav
Pre-gap length 0:00:03.00
Peak level 80.6 %
Extraction speed 1.9 X
Track quality 100.0 %
Test CRC AC9D582C
Copy CRC AC9D582C
Track not present in AccurateRip database
Copy OK
Track 7
Filename C:\EAC rips\07 - Black and White Memories.wav
Pre-gap length 0:00:03.00
Peak level 46.2 %
Extraction speed 1.8 X
Track quality 99.9 %
Test CRC 7056449F
Copy CRC 7056449F
Track not present in AccurateRip database
Copy OK
Track 8
Filename C:\EAC rips\08 - Ballade (dedicated to Nicole).wav
Pre-gap length 0:00:03.00
Peak level 32.6 %
Extraction speed 2.1 X
Track quality 100.0 %
Test CRC 73AD3C06
Copy CRC 73AD3C06
Track not present in AccurateRip database
Copy OK
None of the tracks are present in the AccurateRip database
No errors occurred
End of status report
---- CUETools DB Plugin V2.1.4
[CTDB TOCID: ozTIBiVhF3TctCT0WokwJ8t1F2I-] disk not present in database
Submit result: ozTIBiVhF3TctCT0WokwJ8t1F2I- has been uploaded
==== Log checksum 69F427E09FDB40D9D8551B6783A0D12BE2D54FC2298819F7FB5E27116DBA7ED5 ====
 
Содержание индексной карты (.CUE)
REM GENRE Jazz
REM DATE 1988
REM DISCID 660C2708
REM COMMENT "ExactAudioCopy v1.0b3"
PERFORMER "D. M. Visotzky & François Volpé"
TITLE "One Eyed Cat"
FILE "01 - One Eyed Cat.wav" WAVE
TRACK 01 AUDIO
TITLE "One Eyed Cat"
PERFORMER "D. M. Visotzky & François Volpé"
INDEX 01 00:00:00
TRACK 02 AUDIO
TITLE "Nakano Eki"
PERFORMER "D. M. Visotzky & François Volpé"
INDEX 00 04:04:37
FILE "02 - Nakano Eki.wav" WAVE
INDEX 01 00:00:00
TRACK 03 AUDIO
TITLE "Valsette"
PERFORMER "D. M. Visotzky & François Volpé"
INDEX 00 07:18:38
FILE "03 - Valsette.wav" WAVE
INDEX 01 00:00:00
TRACK 04 AUDIO
TITLE "A Morning in Your Eyes (to Aki)"
PERFORMER "D. M. Visotzky & François Volpé"
INDEX 00 05:07:25
FILE "04 - A Morning in Your Eyes (to Aki).wav" WAVE
INDEX 01 00:00:00
TRACK 05 AUDIO
TITLE "Stone Head"
PERFORMER "D. M. Visotzky & François Volpé"
INDEX 00 07:33:25
FILE "05 - Stone Head.wav" WAVE
INDEX 01 00:00:00
TRACK 06 AUDIO
TITLE "La Forme du désert (Leuto ad libitum / Andante / Largo ad libitum)"
PERFORMER "D. M. Visotzky & François Volpé"
INDEX 00 06:58:50
FILE "06 - La Forme du désert (Leuto ad libitum - Andante - Largo ad libitum).wav" WAVE
INDEX 01 00:00:00
INDEX 02 02:57:50
INDEX 03 06:28:62
TRACK 07 AUDIO
TITLE "Black and White Memories"
PERFORMER "D. M. Visotzky & François Volpé"
INDEX 00 09:09:62
FILE "07 - Black and White Memories.wav" WAVE
INDEX 01 00:00:00
TRACK 08 AUDIO
TITLE "Ballade (dedicated to Nicole)"
PERFORMER "D. M. Visotzky & François Volpé"
INDEX 00 04:47:63
FILE "08 - Ballade (dedicated to Nicole).wav" WAVE
INDEX 01 00:00:00
Any questions -> support@pro-jazz.com. По всем вопросам пишите -> support@pro-jazz.com
19:36
143
Нет комментариев. Ваш будет первым!