Вы используете незарегистрированную версию компонента "Вкладки"!

Поиск

(Free Jazz, Free Improvisation, ILK Music) Han Bennink Trio (Simon Toldam, Joachim Badenhorst) - Parken - 2009, FLAC (tracks+.cue), lossless

(Free Jazz, Free Improvisation, ILK Music) Han Bennink Trio (Simon Toldam, Joachim Badenhorst) - Parken - 2009, FLAC (tracks+.cue), lossless
Треклист:
Han Bennink Trio / Parken
Жанр: Free Jazz, Free Improvisation, ILK Music
Страна-производитель диска: Denmark
Год издания: 2009
Издатель (лейбл): ILK Music
Номер по каталогу: ILK156CD
Аудиокодек: FLAC (*.flac)
Тип рипа: tracks+.cue
Битрейт аудио: lossless
Продолжительность: 48:41
Источник (релизер): я
Наличие сканов в содержимом раздачи: нет
Треклист:
1. Music for Camping (Simon Toldam) 9:51
2. Flemische March (Han Bennink / Joachim Badenhorst / Simon Toldam) 4:20
3. Lady of the Lavender Mist (Duke Ellington) 5:46
4. Myckewelk (Han Bennink / Joachim Badenhorst / Simon Toldam) 2:00
5. Isfahan (Duke Ellington / Billy Strayhorn) 6:20
6. Reedeater (Joachim Badenhorst) 6:44
7. Fleurette africaine (Duke Ellington) 4:20
8. After the March (Han Bennink / Joachim Badenhorst / Simon Toldam) 5:23
9. Parken (Sieben) 3:57
Vocals on « Parken » by Qarin Wikström. « Parken » lyrics by Qarin Wikström & Josefine Lindstrand.
Recorded at Epidemin, Göteborg.
Han Bennink – Drums
Simon Toldam – Piano
Joachim Badenhorst – Clarinet, Bass Clarinet
 
Лог создания рипа
Exact Audio Copy V1.0 beta 3 from 29. August 2011
EAC extraction logfile from 26. October 2013, 14:19
Han Bennink Trio / Parken
Used drive : SlimtypeeNAU508 5 Adapter: 1 ID: 0
Read mode : Secure
Utilize accurate stream : Yes
Defeat audio cache : Yes
Make use of C2 pointers : No
Read offset correction : 6
Overread into Lead-In and Lead-Out : No
Fill up missing offset samples with silence : Yes
Delete leading and trailing silent blocks : No
Null samples used in CRC calculations : Yes
Used interface : Native Win32 interface for Win NT & 2000
Gap handling : Appended to previous track
Used output format : User Defined Encoder
Selected bitrate : 768 kBit/s
Quality : High
Add ID3 tag : No
Command line compressor : C:\Program Files (x86)\Exact Audio Copy\Flac\flac.exe
Additional command line options : -8 -V -T "ARTIST=%artist%" -T "TITLE=%title%" -T "ALBUM=%albumtitle%" -T "DATE=%year%" -T "TRACKNUMBER=%tracknr%" -T "GENRE=%genre%" -T "PERFORMER=%albuminterpret%" -T "COMPOSER=%composer%" %haslyrics%--tag-from-file=LYRICS="%lyricsfile%"%haslyrics% -T "ALBUMARTIST=%albumartist%" -T "DISCNUMBER=%cdnumber%" -T "TOTALDISCS=%totalcds%" -T "TOTALTRACKS=%numtracks%" -T "COMMENT=%comment%" %source% -o %dest%
TOC of the extracted CD
Track | Start | Length | Start sector | End sector
---------------------------------------------------------
1 | 0:00.00 | 9:50.56 | 0 | 44305
2 | 9:50.56 | 4:19.39 | 44306 | 63769
3 | 14:10.20 | 5:45.71 | 63770 | 89715
4 | 19:56.16 | 2:00.11 | 89716 | 98726
5 | 21:56.27 | 6:20.17 | 98727 | 127243
6 | 28:16.44 | 6:44.06 | 127244 | 157549
7 | 35:00.50 | 4:20.32 | 157550 | 177081
8 | 39:21.07 | 5:22.61 | 177082 | 201292
9 | 44:43.68 | 3:57.14 | 201293 | 219081
Track 1
Filename C:\EAC rips\01 - Music for Camping.wav
Pre-gap length 0:00:02.00
Peak level 95.5 %
Extraction speed 2.6 X
Track quality 100.0 %
Test CRC 49B9DF7C
Copy CRC 49B9DF7C
Accurately ripped (confidence 4) [15A3A6BA] (AR v1)
Copy OK
Track 2
Filename C:\EAC rips\02 - Flemische March.wav
Peak level 98.9 %
Extraction speed 2.7 X
Track quality 100.0 %
Test CRC 680FBE03
Copy CRC 680FBE03
Accurately ripped (confidence 2) [A871D6C7] (AR v2)
Copy OK
Track 3
Filename C:\EAC rips\03 - Lady of the Lavender Mist.wav
Peak level 98.8 %
Extraction speed 2.7 X
Track quality 99.9 %
Test CRC 1DE326C7
Copy CRC 1DE326C7
Accurately ripped (confidence 2) [2DC7068E] (AR v2)
Copy OK
Track 4
Filename C:\EAC rips\04 - Myckewelk.wav
Peak level 98.8 %
Extraction speed 2.0 X
Track quality 99.9 %
Test CRC 83B13462
Copy CRC 83B13462
Accurately ripped (confidence 2) [940BF50B] (AR v2)
Copy OK
Track 5
Filename C:\EAC rips\05 - Isfahan.wav
Peak level 98.8 %
Extraction speed 3.5 X
Track quality 100.0 %
Test CRC 47242477
Copy CRC 47242477
Accurately ripped (confidence 2) [46F205E6] (AR v2)
Copy OK
Track 6
Filename C:\EAC rips\06 - Reedeater.wav
Peak level 98.9 %
Extraction speed 3.8 X
Track quality 100.0 %
Test CRC 946533AD
Copy CRC 946533AD
Accurately ripped (confidence 2) [84D5DD46] (AR v2)
Copy OK
Track 7
Filename C:\EAC rips\07 - Fleurette africaine.wav
Peak level 98.8 %
Extraction speed 3.7 X
Track quality 100.0 %
Test CRC C197399A
Copy CRC C197399A
Accurately ripped (confidence 2) [14D3191E] (AR v2)
Copy OK
Track 8
Filename C:\EAC rips\08 - After the March.wav
Peak level 98.8 %
Extraction speed 4.1 X
Track quality 100.0 %
Test CRC 40E5BC0A
Copy CRC 40E5BC0A
Accurately ripped (confidence 2) [E1ECAC93] (AR v2)
Copy OK
Track 9
Filename C:\EAC rips\09 - Parken.wav
Peak level 97.4 %
Extraction speed 4.1 X
Track quality 100.0 %
Test CRC 870F0021
Copy CRC 870F0021
Accurately ripped (confidence 2) [DF9E25FF] (AR v2)
Copy OK
All tracks accurately ripped
No errors occurred
End of status report
---- CUETools DB Plugin V2.1.4
[CTDB TOCID: 4S3w6zOIYgWX05D3whb0ltD.GhQ-] disk not present in database
Submit result: 4S3w6zOIYgWX05D3whb0ltD.GhQ- has been uploaded
==== Log checksum F390570EB7A9739E0EE7FD352F20562D6ED2A4F25AEDE1F1F8B33339611865B3 ====
 
Содержание индексной карты (.CUE)
REM GENRE Jazz
REM DATE 2009
REM DISCID 810B6909
REM COMMENT "ExactAudioCopy v1.0b3"
PERFORMER "Han Bennink Trio"
TITLE "Parken"
FILE "01 - Music for Camping.wav" WAVE
TRACK 01 AUDIO
TITLE "Music for Camping"
PERFORMER "Han Bennink Trio"
ISRC DKEW60900101
FLAGS DCP
INDEX 01 00:00:00
FILE "02 - Flemische March.wav" WAVE
TRACK 02 AUDIO
TITLE "Flemische March"
PERFORMER "Han Bennink Trio"
ISRC DKEW60900102
FLAGS DCP
INDEX 01 00:00:00
FILE "03 - Lady of the Lavender Mist.wav" WAVE
TRACK 03 AUDIO
TITLE "Lady of the Lavender Mist"
PERFORMER "Han Bennink Trio"
ISRC DKEW60900103
FLAGS DCP
INDEX 01 00:00:00
FILE "04 - Myckewelk.wav" WAVE
TRACK 04 AUDIO
TITLE "Myckewelk"
PERFORMER "Han Bennink Trio"
ISRC DKEW60900104
FLAGS DCP
INDEX 01 00:00:00
FILE "05 - Isfahan.wav" WAVE
TRACK 05 AUDIO
TITLE "Isfahan"
PERFORMER "Han Bennink Trio"
ISRC DKEW60900105
FLAGS DCP
INDEX 01 00:00:00
FILE "06 - Reedeater.wav" WAVE
TRACK 06 AUDIO
TITLE "Reedeater"
PERFORMER "Han Bennink Trio"
ISRC DKEW60900106
FLAGS DCP
INDEX 01 00:00:00
FILE "07 - Fleurette africaine.wav" WAVE
TRACK 07 AUDIO
TITLE "Fleurette africaine"
PERFORMER "Han Bennink Trio"
ISRC DKEW60900107
FLAGS DCP
INDEX 01 00:00:00
FILE "08 - After the March.wav" WAVE
TRACK 08 AUDIO
TITLE "After the March"
PERFORMER "Han Bennink Trio"
ISRC DKEW60900108
FLAGS DCP
INDEX 01 00:00:00
FILE "09 - Parken.wav" WAVE
TRACK 09 AUDIO
TITLE "Parken"
PERFORMER "Han Bennink Trio"
ISRC DKEW60900109
FLAGS DCP
INDEX 01 00:00:00
Any questions -> support@pro-jazz.com. По всем вопросам пишите -> support@pro-jazz.com
19:35
170
Нет комментариев. Ваш будет первым!