Вы используете незарегистрированную версию компонента "Вкладки"!

Поиск

(Avant-Garde Jazz) Neo - Water Resistance - 2009, FLAC (tracks+.cue), lossless

(Avant-Garde Jazz) Neo - Water Resistance - 2009, FLAC (tracks+.cue), lossless
Треклист:
Neo - Water Resistance
Жанр: Avant-Garde Jazz
Страна-производитель диска: Италия
Год издания: 2009
Издатель (лейбл): Megasound Records
Номер по каталогу: MSM013
Аудиокодек: FLAC (*.flac)
Тип рипа: tracks+.cue
Битрейт аудио: lossless
Продолжительность: 52:30
Источник (релизер): lindinalwa (what)
Наличие сканов в содержимом раздачи: да
Треклист:
01. Ooh no! (Maresca) - 3:54
02. Canto di natale (Maresca) - 0:26
03. Opus reticulatum (Maresca) - 2:50
04. Medieval tune (Maresca) - 2:27
05. Are u still friend with your brain? (Maresca) - 2:59
06. Iperprofessional (Maresca) - 2:33
07. The proliferator (Maresca) - 6:01
08. Come trasformare il divertimento in tragedia (Maresca) - 4:39
09. Delirio trementz (Maresca) - 3:17
10. Pensieri e riflessioni sull'ottimismo (Maresca) - 1:52
11. L'inseguimento (Maresca) - 4:30
12. Candida (Maresca) - 3:56
13. Silicon valley (Maresca) - 2:38
14. New Orleans (Maresca) - 7:24
15. Pascua (Maresca) - 3:04
Состав:
Carlo Conti - tenor saxophone
Manlio Maresca - guitar
Antonio Zitarelli - drums
Recorded at Locomotore Studio, Rome on July 8-11, 2008.
 
Лог создания рипа
Exact Audio Copy V1.0 beta 3 from 29. August 2011
EAC extraction logfile from 30. December 2012, 12:25
Neo / Water Resistance
Used drive : Optiarc DVD RW AD-7243S Adapter: 0 ID: 1
Read mode : Secure
Utilize accurate stream : Yes
Defeat audio cache : Yes
Make use of C2 pointers : No
Read offset correction : 48
Overread into Lead-In and Lead-Out : No
Fill up missing offset samples with silence : Yes
Delete leading and trailing silent blocks : No
Null samples used in CRC calculations : Yes
Used interface : Native Win32 interface for Win NT & 2000
Gap handling : Appended to previous track
Used output format : User Defined Encoder
Selected bitrate : 768 kBit/s
Quality : High
Add ID3 tag : No
Command line compressor : C:\Program Files\Exact Audio Copy\FLAC\FLAC.EXE
Additional command line options : V -8 -T "Genre=%genre%" -T "Artist=%artist%" -T "Title=%title%" -T "Album=%albumtitle%" -T "Date=%year%" -T "Tracknumber=%tracknr%" -T "Comment=%comment%" %source%
TOC of the extracted CD
Track | Start | Length | Start sector | End sector
---------------------------------------------------------
1 | 0:00.00 | 3:53.55 | 0 | 17529
2 | 3:53.55 | 0:25.44 | 17530 | 19448
3 | 4:19.24 | 2:49.71 | 19449 | 32194
4 | 7:09.20 | 2:26.69 | 32195 | 43213
5 | 9:36.14 | 2:58.60 | 43214 | 56623
6 | 12:34.74 | 2:32.54 | 56624 | 68077
7 | 15:07.53 | 6:00.42 | 68078 | 95119
8 | 21:08.20 | 4:38.65 | 95120 | 116034
9 | 25:47.10 | 3:16.45 | 116035 | 130779
10 | 29:03.55 | 1:52.01 | 130780 | 139180
11 | 30:55.56 | 4:29.71 | 139181 | 159426
12 | 35:25.52 | 3:56.00 | 159427 | 177126
13 | 39:21.52 | 2:37.66 | 177127 | 188967
14 | 41:59.43 | 7:24.22 | 188968 | 222289
15 | 49:23.65 | 3:03.66 | 222290 | 236080
Track 1
Filename C:\Documents and Settings\S\Мои документы\Torrent раздача\01 Ooh no!.wav
Pre-gap length 0:00:02.00
Peak level 97.7 %
Extraction speed 2.2 X
Track quality 99.9 %
Test CRC CDA5298D
Copy CRC CDA5298D
Track not present in AccurateRip database
Copy OK
Track 2
Filename C:\Documents and Settings\S\Мои документы\Torrent раздача\02 Canto di natale.wav
Peak level 97.7 %
Extraction speed 0.7 X
Track quality 99.5 %
Test CRC 5D7CA1DD
Copy CRC 5D7CA1DD
Track not present in AccurateRip database
Copy OK
Track 3
Filename C:\Documents and Settings\S\Мои документы\Torrent раздача\03 Opus reticolatum.wav
Peak level 97.7 %
Extraction speed 2.2 X
Track quality 99.9 %
Test CRC 1612BC98
Copy CRC 1612BC98
Track not present in AccurateRip database
Copy OK
Track 4
Filename C:\Documents and Settings\S\Мои документы\Torrent раздача\04 Medieval tune.wav
Peak level 97.7 %
Extraction speed 2.6 X
Track quality 100.0 %
Test CRC F3E8BE4A
Copy CRC F3E8BE4A
Track not present in AccurateRip database
Copy OK
Track 5
Filename C:\Documents and Settings\S\Мои документы\Torrent раздача\05 Are u still friend with your brain.wav
Peak level 97.7 %
Extraction speed 2.9 X
Track quality 100.0 %
Test CRC CA901FB7
Copy CRC CA901FB7
Track not present in AccurateRip database
Copy OK
Track 6
Filename C:\Documents and Settings\S\Мои документы\Torrent раздача\06 Iperprofessional.wav
Peak level 97.7 %
Extraction speed 2.4 X
Track quality 99.9 %
Test CRC A86C6E24
Copy CRC A86C6E24
Track not present in AccurateRip database
Copy OK
Track 7
Filename C:\Documents and Settings\S\Мои документы\Torrent раздача\07 The proliferator.wav
Peak level 97.7 %
Extraction speed 3.2 X
Track quality 99.9 %
Test CRC 46972E67
Copy CRC 46972E67
Track not present in AccurateRip database
Copy OK
Track 8
Filename C:\Documents and Settings\S\Мои документы\Torrent раздача\08 Come trasformare il divertimento in tragedia.wav
Peak level 97.7 %
Extraction speed 3.3 X
Track quality 99.9 %
Test CRC DE43E37A
Copy CRC DE43E37A
Track not present in AccurateRip database
Copy OK
Track 9
Filename C:\Documents and Settings\S\Мои документы\Torrent раздача\09 Delirio trementz.wav
Peak level 97.7 %
Extraction speed 3.7 X
Track quality 100.0 %
Test CRC 8F914636
Copy CRC 8F914636
Track not present in AccurateRip database
Copy OK
Track 10
Filename C:\Documents and Settings\S\Мои документы\Torrent раздача\10 Pensieri e riflessioni sull'ottimismo.wav
Peak level 97.7 %
Extraction speed 3.4 X
Track quality 100.0 %
Test CRC 9DD8F7B1
Copy CRC 9DD8F7B1
Track not present in AccurateRip database
Copy OK
Track 11
Filename C:\Documents and Settings\S\Мои документы\Torrent раздача\11 L'inseguimento.wav
Peak level 97.7 %
Extraction speed 4.1 X
Track quality 100.0 %
Test CRC 9672C0A8
Copy CRC 9672C0A8
Track not present in AccurateRip database
Copy OK
Track 12
Filename C:\Documents and Settings\S\Мои документы\Torrent раздача\12 Candida.wav
Peak level 97.7 %
Extraction speed 4.2 X
Track quality 100.0 %
Test CRC C719667D
Copy CRC C719667D
Track not present in AccurateRip database
Copy OK
Track 13
Filename C:\Documents and Settings\S\Мои документы\Torrent раздача\13 Silicon valley.wav
Peak level 97.7 %
Extraction speed 4.1 X
Track quality 100.0 %
Test CRC B1440F33
Copy CRC B1440F33
Track not present in AccurateRip database
Copy OK
Track 14
Filename C:\Documents and Settings\S\Мои документы\Torrent раздача\14 New Orleans.wav
Peak level 97.7 %
Extraction speed 4.9 X
Track quality 100.0 %
Test CRC 81C56FB5
Copy CRC 81C56FB5
Track not present in AccurateRip database
Copy OK
Track 15
Filename C:\Documents and Settings\S\Мои документы\Torrent раздача\15 Pascua.wav
Peak level 97.7 %
Extraction speed 4.5 X
Track quality 100.0 %
Test CRC 6C17F60A
Copy CRC 6C17F60A
Track not present in AccurateRip database
Copy OK
None of the tracks are present in the AccurateRip database
No errors occurred
End of status report
==== Log checksum A67B84CD706E35A60CCEC2274596D21B94D5C2A3FE0CE48BAD240F4B7821B02E ====
 
Содержание индексной карты (.CUE)
REM GENRE Jazz
REM DATE 2009
REM DISCID D20C4B0F
REM COMMENT "ExactAudioCopy v1.0b3"
PERFORMER "Neo"
TITLE "Water Resistance"
FILE "01 - Ooh no!.wav" WAVE
TRACK 01 AUDIO
TITLE "Ooh no!"
PERFORMER "Neo"
ISRC ITK490900631
INDEX 01 00:00:00
FILE "02 - Canto di natale.wav" WAVE
TRACK 02 AUDIO
TITLE "Canto di natale"
PERFORMER "Neo"
ISRC ITK490900632
INDEX 01 00:00:00
FILE "03 - Opus reticulatum.wav" WAVE
TRACK 03 AUDIO
TITLE "Opus reticulatum"
PERFORMER "Neo"
ISRC ITK490900633
INDEX 01 00:00:00
FILE "04 - Medieval tune.wav" WAVE
TRACK 04 AUDIO
TITLE "Medieval tune"
PERFORMER "Neo"
ISRC ITK490900634
INDEX 01 00:00:00
FILE "05 - Are u still friend with your brain.wav" WAVE
TRACK 05 AUDIO
TITLE "Are u still friend with your brain?"
PERFORMER "Neo"
ISRC ITK490900635
INDEX 01 00:00:00
FILE "06 - Iperprofessional.wav" WAVE
TRACK 06 AUDIO
TITLE "Iperprofessional"
PERFORMER "Neo"
ISRC ITK490900636
INDEX 01 00:00:00
FILE "07 - The proliferator.wav" WAVE
TRACK 07 AUDIO
TITLE "The proliferator"
PERFORMER "Neo"
ISRC ITK490900637
INDEX 01 00:00:00
FILE "08 - Come trasformare il divertimento in tragedia.wav" WAVE
TRACK 08 AUDIO
TITLE "Come trasformare il divertimento in tragedia"
PERFORMER "Neo"
ISRC ITK490900638
INDEX 01 00:00:00
FILE "09 - Delirio trementz.wav" WAVE
TRACK 09 AUDIO
TITLE "Delirio trementz"
PERFORMER "Neo"
ISRC ITK490900639
INDEX 01 00:00:00
FILE "10 - Pensieri e riflessioni sull'ottimismo.wav" WAVE
TRACK 10 AUDIO
TITLE "Pensieri e riflessioni sull'ottimismo"
PERFORMER "Neo"
ISRC ITK490900640
INDEX 01 00:00:00
FILE "11 - L'inseguimento.wav" WAVE
TRACK 11 AUDIO
TITLE "L'inseguimento"
PERFORMER "Neo"
ISRC ITK490900641
INDEX 01 00:00:00
FILE "12 - Candida.wav" WAVE
TRACK 12 AUDIO
TITLE "Candida"
PERFORMER "Neo"
ISRC ITK490900642
INDEX 01 00:00:00
FILE "13 - Silicon valley.wav" WAVE
TRACK 13 AUDIO
TITLE "Silicon valley"
PERFORMER "Neo"
ISRC ITK490900643
INDEX 01 00:00:00
FILE "14 - New Orleans.wav" WAVE
TRACK 14 AUDIO
TITLE "New Orleans"
PERFORMER "Neo"
ISRC ITK490900644
INDEX 01 00:00:00
FILE "15 - Pascua.wav" WAVE
TRACK 15 AUDIO
TITLE "Pascua"
PERFORMER "Neo"
ISRC ITK490900645
INDEX 01 00:00:00
 
Отчет CUETools
[CUETools log; Date: 26.10.2013 16:49:35; Version: 2.1.4]
[CTDB TOCID: 9Hk.LfIvBjwrGbbqT2PO6uL1ipI-] disk not present in database.
[AccurateRip ID: 0019f8d3-012f3763-d20c4b0f] disk not present in database.
Track Peak [ CRC32 ] [W/O NULL] [ LOG ]
-- 97,7 [33CA8979] [9AF7FA92]
01 97,7 [CDA5298D] [08853DAF] CRC32
02 97,7 [5D7CA1DD] [57ABE53B] CRC32
03 97,7 [1612BC98] [FA38A12D] CRC32
04 97,7 [F3E8BE4A] [50AE47CA] CRC32
05 97,7 [CA901FB7] [6F4B72A4] CRC32
06 97,7 [A86C6E24] [2D5D30A5] CRC32
07 97,7 [46972E67] [C7171EF9] CRC32
08 97,7 [DE43E37A] [B91AA146] CRC32
09 97,7 [8F914636] [6BB8E6E7] CRC32
10 97,7 [9DD8F7B1] [7FE96CA2] CRC32
11 97,7 [9672C0A8] [6C3E907E] CRC32
12 97,7 [C719667D] [5727D18F] CRC32
13 97,7 [B1440F33] [71047068] CRC32
14 97,7 [81C56FB5] [B6F7716B] CRC32
15 97,7 [6C17F60A] [1B7CF4A3] CRC32
 
Review by Pico
There's just three guys in Neo: drummer Antonio Zitarelli, tenor saxophonist Carlo Conti and guitarist Manilo Maresca, but they make a lot of joyful noise. Its start-stop-stumble speed jazz that calls to mind the vivid, condensed harmolodics of John Zorn's Spy vs Spy and the raw, thrashing energy of the Scorch Trio. Atonal but highly structured, highly composed but highly improvisational, the music of Neo is a conundrum that invites listeners to solve. And I love puzzles like these. There's no bassist, but there's no need for one: rhythm and harmony are completed integrated, making the bass's traditional role of bridging the two not needed in this case.
Water Resistance came out last year, distributed stateside by Cuneiform's Wayside imprint. There's fifteen tracks here, but nine of them run three and a half minutes or less and another four of them less than five minutes long. It's like “ultra" laundry detergent: so intense, just a small dose handles the load. “Ooh No!" shows determined concentration for all three players to play such gnarly lines in perfect unison. Many whack jazz combos might get that hyper for a tune or two, but Neo rarely lets up on the gas pedal. “Canto Di Natale" is a twenty-six second screech fest, and “Medieval Tune" sounds much like a mutated Western swing tune. “Iperprofessional" is the closest the group come to an identifiable melody in the conventional sense, one that is constructed using Ornette's principles.
The ballad of the bunch finally comes at track eight, “Come Trasformare Il Divertimento In Tragedia," a song that's played at a normal tempo, but by slowing it down, one gets to uncover the intricacies in their compositions that blow by the ears at their usual rapid pace. “Pensieri E Riflessiono Suli'Ottimismo" is a dyslectic mish mash of sounds, like a broken down hip-hop rhythm track and a sax blown as if it was from behind a fan. Occasionally, there are short individual solos like from Conti on “Silicon Valley," but the structured or group improvisation parts are usually far more complex than the solos.
Any questions -> support@pro-jazz.com. По всем вопросам пишите -> support@pro-jazz.com
19:35
178
Нет комментариев. Ваш будет первым!