Вы используете незарегистрированную версию компонента "Вкладки"!

Поиск

(Avant-Garde, Modern Jazz, Auand) Francesco Bearzatti Bizart Trio (Emmanuel Bex, Aldo Romano) + Rava - Hope - 2004, FLAC (tracks+.cue), lossless

(Avant-Garde, Modern Jazz, Auand) Francesco Bearzatti Bizart Trio (Emmanuel Bex, Aldo Romano) + Rava - Hope - 2004, FLAC (tracks+.cue), lossless
Треклист:
Francesco Bearzatti Bizart Trio + Rava / Hope
Жанр: Avant-Garde, Modern Jazz, Auand
Страна-производитель диска: Italy
Год издания: 2004
Издатель (лейбл): Auand
Номер по каталогу: AU9007
Аудиокодек: FLAC (*.flac)
Тип рипа: tracks+.cue
Битрейт аудио: lossless
Продолжительность: 55:12
Источник (релизер): я
Наличие сканов в содержимом раздачи: нет
Треклист:
01. T Tango 7:38
02. Soap Bubble 5:59
03. From Halab to Damascus 4:58
04. Caorle 5:16
05. End of this love 3:41
06. Assenza (Aldo Romano) 2:44
07. Il camino (Aldo Romano) 3:52
08. Body-Trap (Emmanuel Bex) 4:33
09. Kids 4:48
10. Hope 11:45
All compositions by Francesco Bearzatti except where indicated.
Recorded at Artesuono Recording Studio, Cavalicco (Udine, Italy) on June 21-22-23, 2004.
Francesco Bearzatti – Tenor Sax, Clarinet, Keyboards and Vocals on #10
Emmanuel Bex – Organ, Electronics
Aldo Romano – Drums, Guitar on #6
Special guest:
Enrico Rava – Trumpet on #1, 2, 4, 6, 9
Guests:
Enrico Terragnoli – Guitar on #5
Oscar Marchioni – Hammond Organ on #5
Paolo Mappa – Drums on #5, 10
 
Лог создания рипа
Exact Audio Copy V1.0 beta 3 from 29. August 2011
EAC extraction logfile from 24. October 2013, 21:48
Francesco Bearzatti Bizart Trio + Rava / Hope
Used drive : SlimtypeeNAU508 5 Adapter: 1 ID: 0
Read mode : Secure
Utilize accurate stream : Yes
Defeat audio cache : Yes
Make use of C2 pointers : No
Read offset correction : 6
Overread into Lead-In and Lead-Out : No
Fill up missing offset samples with silence : Yes
Delete leading and trailing silent blocks : No
Null samples used in CRC calculations : Yes
Used interface : Native Win32 interface for Win NT & 2000
Gap handling : Appended to previous track
Used output format : User Defined Encoder
Selected bitrate : 768 kBit/s
Quality : High
Add ID3 tag : No
Command line compressor : C:\Program Files (x86)\Exact Audio Copy\Flac\flac.exe
Additional command line options : -8 -V -T "ARTIST=%artist%" -T "TITLE=%title%" -T "ALBUM=%albumtitle%" -T "DATE=%year%" -T "TRACKNUMBER=%tracknr%" -T "GENRE=%genre%" -T "PERFORMER=%albuminterpret%" -T "COMPOSER=%composer%" %haslyrics%--tag-from-file=LYRICS="%lyricsfile%"%haslyrics% -T "ALBUMARTIST=%albumartist%" -T "DISCNUMBER=%cdnumber%" -T "TOTALDISCS=%totalcds%" -T "TOTALTRACKS=%numtracks%" -T "COMMENT=%comment%" %source% -o %dest%
TOC of the extracted CD
Track | Start | Length | Start sector | End sector
---------------------------------------------------------
1 | 0:00.00 | 7:37.40 | 0 | 34314
2 | 7:37.40 | 5:58.70 | 34315 | 61234
3 | 13:36.35 | 4:57.64 | 61235 | 83573
4 | 18:34.24 | 5:15.65 | 83574 | 107263
5 | 23:50.14 | 3:40.54 | 107264 | 123817
6 | 27:30.68 | 2:44.02 | 123818 | 136119
7 | 30:14.70 | 3:51.47 | 136120 | 153491
8 | 34:06.42 | 4:32.74 | 153492 | 173965
9 | 38:39.41 | 4:47.65 | 173966 | 195555
10 | 43:27.31 | 11:44.52 | 195556 | 248407
11 | 57:44.08 | 6:47.34 | 259808 | 290366
Track 1
Filename C:\EAC rips\01 - T Tango.wav
Pre-gap length 0:00:02.00
Peak level 98.8 %
Extraction speed 1.1 X
Track quality 100.0 %
Test CRC A718C7EA
Copy CRC A718C7EA
Accurately ripped (confidence 2) [B439075F] (AR v2)
Copy OK
Track 2
Filename C:\EAC rips\02 - Soap Bubble.wav
Pre-gap length 0:00:02.00
Peak level 98.8 %
Extraction speed 1.3 X
Track quality 100.0 %
Test CRC 731BA175
Copy CRC 731BA175
Accurately ripped (confidence 2) [967BBC82] (AR v2)
Copy OK
Track 3
Filename C:\EAC rips\03 - From Halab to Damascus.wav
Pre-gap length 0:00:02.00
Peak level 98.8 %
Extraction speed 1.4 X
Track quality 100.0 %
Test CRC 784DD561
Copy CRC 784DD561
Accurately ripped (confidence 2) [DE31FE54] (AR v2)
Copy OK
Track 4
Filename C:\EAC rips\04 - Caorle.wav
Pre-gap length 0:00:02.00
Peak level 98.8 %
Extraction speed 1.5 X
Track quality 100.0 %
Test CRC 7AB1D7C7
Copy CRC 7AB1D7C7
Accurately ripped (confidence 2) [042EE667] (AR v2)
Copy OK
Track 5
Filename C:\EAC rips\05 - End of This Love.wav
Pre-gap length 0:00:02.00
Peak level 98.8 %
Extraction speed 1.5 X
Track quality 100.0 %
Test CRC 02808FC6
Copy CRC 02808FC6
Accurately ripped (confidence 2) [037914FF] (AR v2)
Copy OK
Track 6
Filename C:\EAC rips\06 - Assenza.wav
Pre-gap length 0:00:02.00
Peak level 98.8 %
Extraction speed 1.3 X
Track quality 99.9 %
Test CRC 34DF0384
Copy CRC 34DF0384
Accurately ripped (confidence 2) [EB5FC9AC] (AR v2)
Copy OK
Track 7
Filename C:\EAC rips\07 - Il camino.wav
Peak level 98.8 %
Extraction speed 1.7 X
Track quality 100.0 %
Test CRC 5F8D783C
Copy CRC 5F8D783C
Accurately ripped (confidence 2) [D20EACD4] (AR v2)
Copy OK
Track 8
Filename C:\EAC rips\08 - Body-Trap.wav
Pre-gap length 0:00:02.00
Peak level 98.8 %
Extraction speed 1.8 X
Track quality 100.0 %
Test CRC 73B787C1
Copy CRC 73B787C1
Accurately ripped (confidence 2) [7E9840D2] (AR v2)
Copy OK
Track 9
Filename C:\EAC rips\09 - Kids.wav
Pre-gap length 0:00:02.00
Peak level 98.8 %
Extraction speed 1.9 X
Track quality 100.0 %
Test CRC 244F63C5
Copy CRC 244F63C5
Accurately ripped (confidence 2) [6174A3B0] (AR v2)
Copy OK
Track 10
Filename C:\EAC rips\10 - Hope.wav
Pre-gap length 0:00:02.00
Peak level 98.8 %
Extraction speed 2.2 X
Track quality 100.0 %
Test CRC 8F50049C
Copy CRC 8F50049C
Accurately ripped (confidence 2) [75B1E130] (AR v2)
Copy OK
All tracks accurately ripped
No errors occurred
End of status report
---- CUETools DB Plugin V2.1.4
[CTDB TOCID: T1657gQE_WqpU.GcIwPIkcVgSKg-] disk not present in database
Submit result: T1657gQE_WqpU.GcIwPIkcVgSKg- has been uploaded
==== Log checksum 91C165D026AEF5E1D5FF0E029AE7C5E81C34D2DF2164150AF68AEA187E9FBB51 ====
 
Содержание индексной карты (.CUE)
 
original .cue sheet
REM GENRE Jazz
REM DATE 2004
REM DISCID 900F1F0B
REM COMMENT "ExactAudioCopy v1.0b3"
CATALOG 8031697900726
PERFORMER "Francesco Bearzatti Bizart Trio + Rava"
TITLE "Hope"
FILE "01 - T Tango.wav" WAVE
TRACK 01 AUDIO
TITLE "T Tango"
PERFORMER "Francesco Bearzatti Bizart Trio + Rava"
INDEX 01 00:00:00
TRACK 02 AUDIO
TITLE "Soap Bubble"
PERFORMER "Francesco Bearzatti Bizart Trio + Rava"
INDEX 00 07:35:40
FILE "02 - Soap Bubble.wav" WAVE
INDEX 01 00:00:00
TRACK 03 AUDIO
TITLE "From Halab to Damascus"
PERFORMER "Francesco Bearzatti Bizart Trio + Rava"
INDEX 00 05:56:70
FILE "03 - From Halab to Damascus.wav" WAVE
INDEX 01 00:00:00
TRACK 04 AUDIO
TITLE "Caorle"
PERFORMER "Francesco Bearzatti Bizart Trio + Rava"
INDEX 00 04:55:64
FILE "04 - Caorle.wav" WAVE
INDEX 01 00:00:00
TRACK 05 AUDIO
TITLE "End of This Love"
PERFORMER "Francesco Bearzatti Bizart Trio + Rava"
INDEX 00 05:13:65
FILE "05 - End of This Love.wav" WAVE
INDEX 01 00:00:00
TRACK 06 AUDIO
TITLE "Assenza"
PERFORMER "Francesco Bearzatti Bizart Trio + Rava"
INDEX 00 03:38:54
FILE "06 - Assenza.wav" WAVE
INDEX 01 00:00:00
FILE "07 - Il camino.wav" WAVE
TRACK 07 AUDIO
TITLE "Il camino"
PERFORMER "Francesco Bearzatti Bizart Trio + Rava"
INDEX 01 00:00:00
TRACK 08 AUDIO
TITLE "Body-Trap"
PERFORMER "Francesco Bearzatti Bizart Trio + Rava"
INDEX 00 03:49:47
FILE "08 - Body-Trap.wav" WAVE
INDEX 01 00:00:00
TRACK 09 AUDIO
TITLE "Kids"
PERFORMER "Francesco Bearzatti Bizart Trio + Rava"
INDEX 00 04:30:74
FILE "09 - Kids.wav" WAVE
INDEX 01 00:00:00
TRACK 10 AUDIO
TITLE "Hope"
PERFORMER "Francesco Bearzatti Bizart Trio + Rava"
INDEX 00 04:45:65
FILE "10 - Hope.wav" WAVE
INDEX 01 00:00:00
TRACK 11 MODEx/2xxx
TITLE "Enhanced CD"
PERFORMER "Francesco Bearzatti Bizart Trio + Rava"
INDEX 00 11:44:52
 
edited .cue sheet
REM GENRE Jazz
REM DATE 2004
REM DISCID 900F1F0B
REM COMMENT "ExactAudioCopy v1.0b3"
CATALOG 8031697900726
PERFORMER "Francesco Bearzatti Bizart Trio + Rava"
TITLE "Hope"
FILE "01 - T Tango.wav" WAVE
TRACK 01 AUDIO
TITLE "T Tango"
PERFORMER "Francesco Bearzatti Bizart Trio + Rava"
INDEX 01 00:00:00
TRACK 02 AUDIO
TITLE "Soap Bubble"
PERFORMER "Francesco Bearzatti Bizart Trio + Rava"
INDEX 00 07:35:40
FILE "02 - Soap Bubble.wav" WAVE
INDEX 01 00:00:00
TRACK 03 AUDIO
TITLE "From Halab to Damascus"
PERFORMER "Francesco Bearzatti Bizart Trio + Rava"
INDEX 00 05:56:70
FILE "03 - From Halab to Damascus.wav" WAVE
INDEX 01 00:00:00
TRACK 04 AUDIO
TITLE "Caorle"
PERFORMER "Francesco Bearzatti Bizart Trio + Rava"
INDEX 00 04:55:64
FILE "04 - Caorle.wav" WAVE
INDEX 01 00:00:00
TRACK 05 AUDIO
TITLE "End of This Love"
PERFORMER "Francesco Bearzatti Bizart Trio + Rava"
INDEX 00 05:13:65
FILE "05 - End of This Love.wav" WAVE
INDEX 01 00:00:00
TRACK 06 AUDIO
TITLE "Assenza"
PERFORMER "Francesco Bearzatti Bizart Trio + Rava"
INDEX 00 03:38:54
FILE "06 - Assenza.wav" WAVE
INDEX 01 00:00:00
FILE "07 - Il camino.wav" WAVE
TRACK 07 AUDIO
TITLE "Il camino"
PERFORMER "Francesco Bearzatti Bizart Trio + Rava"
INDEX 01 00:00:00
TRACK 08 AUDIO
TITLE "Body-Trap"
PERFORMER "Francesco Bearzatti Bizart Trio + Rava"
INDEX 00 03:49:47
FILE "08 - Body-Trap.wav" WAVE
INDEX 01 00:00:00
TRACK 09 AUDIO
TITLE "Kids"
PERFORMER "Francesco Bearzatti Bizart Trio + Rava"
INDEX 00 04:30:74
FILE "09 - Kids.wav" WAVE
INDEX 01 00:00:00
TRACK 10 AUDIO
TITLE "Hope"
PERFORMER "Francesco Bearzatti Bizart Trio + Rava"
INDEX 00 04:45:65
FILE "10 - Hope.wav" WAVE
INDEX 01 00:00:00
Any questions -> support@pro-jazz.com. По всем вопросам пишите -> support@pro-jazz.com
19:34
210
Нет комментариев. Ваш будет первым!