Вы используете незарегистрированную версию компонента "Вкладки"!

Поиск

(Avant-Garde Jazz, Free Improvisation) Mike Nock & Marty Ehrlich - The Waiting Game - 2000, FLAC (image+.cue), lossless

(Avant-Garde Jazz, Free Improvisation) Mike Nock & Marty Ehrlich - The Waiting Game - 2000, FLAC (image+.cue), lossless
Треклист:
♦ Mike Nock & Marty Ehrlich - The Waiting Game ♦
Жанр: Avant-Garde Jazz, Free Improvisation
Страна-производитель диска: Germany
Год издания: 2000
Издатель (лейбл): Naxos Jazz
Номер по каталогу: 86048-2
Аудиокодек: FLAC (*.flac)
Тип рипа: image+.cue
Битрейт аудио: lossless
Продолжительность: 00:55:38
Источник (релизер): Рип с диска.
Наличие сканов в содержимом раздачи: да
Треклист:
01. The Waiting Game [07:40]
02. Reconciliations [05:22]
03. The Duke [05:37]
04. Break Time [03:31]
05. El Testamen de Amelia [05:33]
06. Amhran Pheader Breathnach [05:38]
07. Three Postcards # 1 [02:09]
08. Three Postcards # 2 [01:50]
09. Three Postcards # 3 [01:52]
10. Like Spring [04:29]
11. In the Moment [03:00]
12. Jacanori [05:00]
13. Snowy Morning Blues [03:51]
 
Лог создания рипа
Exact Audio Copy V1.0 beta 3 from 29. August 2011
EAC extraction logfile from 25. October 2013, 15:06
Mike Nock & Marty Ehrlich / The Waiting Game
Used drive : Optiarc DVD RW AD-5200A Adapter: 0 ID: 0
Read mode : Secure
Utilize accurate stream : Yes
Defeat audio cache : Yes
Make use of C2 pointers : No
Read offset correction : 48
Overread into Lead-In and Lead-Out : No
Fill up missing offset samples with silence : Yes
Delete leading and trailing silent blocks : No
Null samples used in CRC calculations : Yes
Used interface : Native Win32 interface for Win NT & 2000
Used output format : User Defined Encoder
Selected bitrate : 128 kBit/s
Quality : High
Add ID3 tag : No
Command line compressor : C:\Program Files\Exact Audio Copy\Flac\flac.exe
Additional command line options : -V -8 -T "Genre=%genre%" -T "Artist=%artist%" -T "Title=%title%" -T "Album=%albumtitle%" -T "Date=%year%" -T "Tracknumber=%tracknr%" -T "Comment=%comment%" %source%
TOC of the extracted CD
Track | Start | Length | Start sector | End sector
---------------------------------------------------------
1 | 0:00.00 | 7:40.01 | 0 | 34500
2 | 7:40.01 | 5:22.40 | 34501 | 58690
3 | 13:02.41 | 5:37.63 | 58691 | 84028
4 | 18:40.29 | 3:31.35 | 84029 | 99888
5 | 22:11.64 | 5:33.71 | 99889 | 124934
6 | 27:45.60 | 5:38.32 | 124935 | 150316
7 | 33:24.17 | 2:09.12 | 150317 | 160003
8 | 35:33.29 | 1:50.37 | 160004 | 168290
9 | 37:23.66 | 1:52.44 | 168291 | 176734
10 | 39:16.35 | 4:29.45 | 176735 | 196954
11 | 43:46.05 | 3:00.09 | 196955 | 210463
12 | 46:46.14 | 5:00.74 | 210464 | 233037
13 | 51:47.13 | 3:51.20 | 233038 | 250382
Range status and errors
Selected range
Filename F:\2000.Mike Nock & Marty Ehrlich - The Waiting Game\Mike Nock & Marty Ehrlich - The Waiting Game.wav
Peak level 96.1 %
Extraction speed 3.7 X
Range quality 100.0 %
Test CRC AC430103
Copy CRC AC430103
Copy OK
No errors occurred
AccurateRip summary
Track 1 accurately ripped (confidence 2) [DC351B37] (AR v1)
Track 2 accurately ripped (confidence 2) [32ACA1B5] (AR v1)
Track 3 accurately ripped (confidence 2) [B82BA51D] (AR v1)
Track 4 accurately ripped (confidence 2) [26E76751] (AR v1)
Track 5 accurately ripped (confidence 2) [8A556D3C] (AR v1)
Track 6 accurately ripped (confidence 2) [FB6C9A24] (AR v1)
Track 7 accurately ripped (confidence 2) [1A90F9F7] (AR v1)
Track 8 accurately ripped (confidence 2) [22FC83FB] (AR v1)
Track 9 accurately ripped (confidence 2) [E51342EE] (AR v1)
Track 10 accurately ripped (confidence 2) [D0A0D48D] (AR v1)
Track 11 accurately ripped (confidence 2) [BCEC828D] (AR v1)
Track 12 accurately ripped (confidence 2) [128E3532] (AR v1)
Track 13 accurately ripped (confidence 2) [4C6AFC3A] (AR v1)
All tracks accurately ripped
End of status report
==== Log checksum 7768327732357DCB7AB0EC8348A43938B79EE42B61182D6D254FAB2F837437CE ====
 
Содержание индексной карты (.CUE)
REM GENRE Jazz
REM DATE 2000
REM DISCID A80D0A0D
REM COMMENT "ExactAudioCopy v1.0b3"
PERFORMER "Mike Nock & Marty Ehrlich"
TITLE "The Waiting Game"
FILE "Mike Nock & Marty Ehrlich - The Waiting Game.flac" WAVE
TRACK 01 AUDIO
TITLE "The Waiting Game"
PERFORMER "Mike Nock & Marty Ehrlich"
ISRC HKI199931501
INDEX 01 00:00:00
TRACK 02 AUDIO
TITLE "Reconciliations"
PERFORMER "Mike Nock & Marty Ehrlich"
ISRC HKI199931502
INDEX 00 07:36:68
INDEX 01 07:40:01
TRACK 03 AUDIO
TITLE "The Duke"
PERFORMER "Mike Nock & Marty Ehrlich"
ISRC HKI199931503
INDEX 00 13:01:08
INDEX 01 13:02:41
TRACK 04 AUDIO
TITLE "Break Time"
PERFORMER "Mike Nock & Marty Ehrlich"
ISRC HKI199931504
INDEX 00 18:40:02
INDEX 01 18:40:29
TRACK 05 AUDIO
TITLE "El Testamen de Amelia"
PERFORMER "Mike Nock & Marty Ehrlich"
ISRC HKI199931505
INDEX 00 22:08:24
INDEX 01 22:11:64
TRACK 06 AUDIO
TITLE "Amhran Pheader Breathnach"
PERFORMER "Mike Nock & Marty Ehrlich"
ISRC HKI199931506
INDEX 00 27:43:45
INDEX 01 27:45:60
TRACK 07 AUDIO
TITLE "Three Postcards # 1"
PERFORMER "Mike Nock & Marty Ehrlich"
ISRC HKI199931507
INDEX 00 33:21:67
INDEX 01 33:24:17
TRACK 08 AUDIO
TITLE "Three Postcards # 2"
PERFORMER "Mike Nock & Marty Ehrlich"
ISRC HKI199931508
INDEX 01 35:33:29
TRACK 09 AUDIO
TITLE "Three Postcards # 3"
PERFORMER "Mike Nock & Marty Ehrlich"
ISRC HKI199931509
INDEX 00 37:23:53
INDEX 01 37:23:66
TRACK 10 AUDIO
TITLE "Like Spring"
PERFORMER "Mike Nock & Marty Ehrlich"
ISRC HKI199931510
INDEX 00 39:14:20
INDEX 01 39:16:35
TRACK 11 AUDIO
TITLE "In the Moment"
PERFORMER "Mike Nock & Marty Ehrlich"
ISRC HKI199931511
INDEX 00 43:42:40
INDEX 01 43:46:05
TRACK 12 AUDIO
TITLE "Jacanori"
PERFORMER "Mike Nock & Marty Ehrlich"
ISRC HKI199931512
INDEX 00 46:44:13
INDEX 01 46:46:14
TRACK 13 AUDIO
TITLE "Snowy Morning Blues"
PERFORMER "Mike Nock & Marty Ehrlich"
ISRC HKI199931513
INDEX 00 51:44:69
INDEX 01 51:47:13
 
Состав
Mike Nock - p
Marty Ehrlich - cl, Bcl, as, ss
Any questions -> support@pro-jazz.com. По всем вопросам пишите -> support@pro-jazz.com
19:33
202
Нет комментариев. Ваш будет первым!