Вы используете незарегистрированную версию компонента "Вкладки"!

Поиск

(Free Jazz) Rodrigo Amado / Kent Kessler / Paal Nilssen-Love - The Abstract Truth - 2009, FLAC (image+.cue), lossless

(Free Jazz) Rodrigo Amado / Kent Kessler / Paal Nilssen-Love - The Abstract Truth - 2009, FLAC (image+.cue), lossless
Треклист:
Rodrigo Amado, Kent Kessler, Paal Nilssen-Love / The Abstract Truth
Жанр: Free Jazz
Страна-производитель диска: Portugal
Год издания: 2009
Издатель (лейбл): European Echoes
Номер по каталогу: 003
Аудиокодек: FLAC (*.flac)
Тип рипа: image+.cue
Битрейт аудио: lossless
Продолжительность: 52:37
Источник (релизер): cd
Наличие сканов в содержимом раздачи: нет
Треклист:
1 Intro / The Red Tower 4:42
2 Clouds And Shadows 4:38
3 Human Condition 5:14
4 The Kiss 9:50
5 Universe Unmasked 7:14
6 A Dream Transformed 7:10
7 The Enchanted Room 6:45
8 Enigma Of The Arrival 7:04
 
Лог создания рипа
Exact Audio Copy V1.0 beta 2 from 29. April 2011
EAC extraction logfile from 14. December 2012, 13:19
Rodrigo Amado, Kent Kessler, Paal Nilssen-Love / The Abstract Truth
Used drive : Optiarc DVD RW AD-7170A Adapter: 0 ID: 0
Read mode : Secure
Utilize accurate stream : Yes
Defeat audio cache : Yes
Make use of C2 pointers : No
Read offset correction : 48
Overread into Lead-In and Lead-Out : No
Fill up missing offset samples with silence : Yes
Delete leading and trailing silent blocks : No
Null samples used in CRC calculations : Yes
Used interface : Native Win32 interface for Win NT & 2000
Used output format : User Defined Encoder
Selected bitrate : 320 kBit/s
Quality : High
Add ID3 tag : No
Command line compressor : C:\Program Files\Exact Audio Copy\Flac\flac.exe
Additional command line options : -V -8 -T "Date=%year%" -T "Genre=%genre%" %source%
TOC of the extracted CD
Track | Start | Length | Start sector | End sector
---------------------------------------------------------
1 | 0:00.00 | 4:41.53 | 0 | 21127
2 | 4:41.53 | 4:38.05 | 21128 | 41982
3 | 9:19.58 | 5:14.69 | 41983 | 65601
4 | 14:34.52 | 9:49.37 | 65602 | 109813
5 | 24:24.14 | 7:13.60 | 109814 | 142348
6 | 31:37.74 | 7:09.71 | 142349 | 174594
7 | 38:47.70 | 6:45.05 | 174595 | 204974
8 | 45:33.00 | 7:04.74 | 204975 | 236848
Range status and errors
Selected range
Filename K:\ЕАС\Rodrigo Amado, Kent Kessler, Paal Nilssen-Love - The Abstract Truth.wav
Peak level 99.9 %
Extraction speed 2.0 X
Range quality 99.9 %
Test CRC 3559334C
Copy CRC 3559334C
Copy OK
No errors occurred
AccurateRip summary
Track 1 accurately ripped (confidence 2) [A64EB357] (AR v1)
Track 2 accurately ripped (confidence 2) [A9551525] (AR v1)
Track 3 accurately ripped (confidence 2) [3D35688E] (AR v1)
Track 4 accurately ripped (confidence 2) [059CB9CF] (AR v1)
Track 5 accurately ripped (confidence 2) [7D0FAFE6] (AR v1)
Track 6 accurately ripped (confidence 2) [8A4D29C5] (AR v1)
Track 7 accurately ripped (confidence 2) [60CD8428] (AR v1)
Track 8 accurately ripped (confidence 2) [432B9CCA] (AR v1)
All tracks accurately ripped
End of status report
==== Log checksum 1981E20277F15B93EC21B6EEC5BC1923C8A59C2BF208F01B4B6D6106B3FD4089 ====
 
Содержание индексной карты (.CUE)
REM GENRE Jazz
REM DATE 2008
REM DISCID 7D0C5508
REM COMMENT "ExactAudioCopy v1.0b2"
PERFORMER "Rodrigo Amado, Kent Kessler, Paal Nilssen-Love"
TITLE "The Abstract Truth"
FILE "Rodrigo Amado, Kent Kessler, Paal Nilssen-Love - The Abstract Truth.flac" WAVE
TRACK 01 AUDIO
TITLE "Intro - The Red Tower"
PERFORMER "Rodrigo Amado, Kent Kessler, Paal Nilssen-Love"
ISRC 000000000000
FLAGS DCP
INDEX 01 00:00:00
TRACK 02 AUDIO
TITLE "Clouds and Shadows"
PERFORMER "Rodrigo Amado, Kent Kessler, Paal Nilssen-Love"
ISRC 000000000000
FLAGS DCP
INDEX 01 04:41:53
TRACK 03 AUDIO
TITLE "Human Condition"
PERFORMER "Rodrigo Amado, Kent Kessler, Paal Nilssen-Love"
ISRC 000000000000
FLAGS DCP
INDEX 01 09:19:58
TRACK 04 AUDIO
TITLE "The Kiss"
PERFORMER "Rodrigo Amado, Kent Kessler, Paal Nilssen-Love"
ISRC 000000000000
FLAGS DCP
INDEX 01 14:34:52
TRACK 05 AUDIO
TITLE "Universe Unmasked"
PERFORMER "Rodrigo Amado, Kent Kessler, Paal Nilssen-Love"
ISRC 000000000000
FLAGS DCP
INDEX 01 24:24:14
TRACK 06 AUDIO
TITLE "A Dream transformed"
PERFORMER "Rodrigo Amado, Kent Kessler, Paal Nilssen-Love"
ISRC 000000000000
FLAGS DCP
INDEX 01 31:37:74
TRACK 07 AUDIO
TITLE "The Enchanted Room"
PERFORMER "Rodrigo Amado, Kent Kessler, Paal Nilssen-Love"
ISRC 000000000000
FLAGS DCP
INDEX 01 38:47:70
TRACK 08 AUDIO
TITLE "Enigma of the Arrival"
PERFORMER "Rodrigo Amado, Kent Kessler, Paal Nilssen-Love"
ISRC 000000000000
FLAGS DCP
INDEX 01 45:33:00
 
Об альбоме (сборнике)
The Abstract Truth is this trio's follow-up to Teatro released in 2006. It came out on Portuguese saxman Rodrigo Amado's own European Echoes imprint. It is a studio session recorded in July 2008, with everyone clearly in top shape. Amado's well-rounded sound on the tenor sax is a joy to follow through sinuous lines ("The Kiss" is the most tender free jazz can get without sounding schmaltzy) and tortuous runs. Less impressive is his baritone playing, a little grating and hazardous. The rhythm section is, of course, one of the best adventurous jazz has to offer in the 2000s -- Kessler (bass) and Nilssen-Love (drums) complement each other at a level where it almost doesn't matter who they are playing with. The Abstract Truth consists of eight pieces in the five- to ten-minute range. Moods vary from tenderness to fierceness and, oddly, both the longest track ("The Kiss") and the shortest track ("Clouds and Shadows") are highlights. However, there is not a single weak track on this disc. How much material was recorded that day is not known, but judging from what is released here, the trio is constantly on, alight, and into it, even in the more experimental moments like the dirge-like middle section of the concluding "Enigma of the Arrival."
 
Состав
Double Bass – Kent Kessler
Drums – Paal Nilssen-Love
Tenor Saxophone, Baritone Saxophone – Rodrigo Amado
Any questions -> support@pro-jazz.com. По всем вопросам пишите -> support@pro-jazz.com
06:25
190
Нет комментариев. Ваш будет первым!