Поиск

(free jazz, avant-garde) Odean Pope & Dave Burrell - Changes & Chances (1999) , FLAC (tracks+.cue), lossless

(free jazz, avant-garde) Odean Pope & Dave Burrell - Changes & Chances (1999) , FLAC (tracks+.cue), lossless
Треклист:


Odean Pope & Dave Burrell - Changes & Chances (1999) {CIMP 191}

Жанр: free jazz, avant-garde
Год выпуска: 1999
Издатель (лейбл):CIMP 191
Формат: FLAC (tracks+.cue)
Битрейт аудио: lossless
Продолжительность 56`01
Источник: what.cd, szakall
Odean Pope - tenor sax
Dave Burrell - piano
Recorded at Widener Univ. Studio, Chester, PA, January 12, 1999

tracks

01. Three Four vs. Four Four 5.73
02. Full Moon in the Village 6.92
03. Opal 4.1
04. Nea Politan Minor, Pt. 2 6.55
05. Changes 5.98
06. Early On (Dedicated to Wanja) 10.71
07. Me and You 4.11
08 Tempo 5.86
09. Chances 6.05


 
.log
Exact Audio Copy V1.0 beta 3 from 29. August 2011
EAC extraction logfile from 16. September 2012, 22:31
Odeon Pope & Dave Burrell / Changes & Chances
Used drive : TSSTcorpCDDVDW SH-S222A Adapter: 1 ID: 0
Read mode : Secure
Utilize accurate stream : Yes
Defeat audio cache : Yes
Make use of C2 pointers : No
Read offset correction : 6
Overread into Lead-In and Lead-Out : No
Fill up missing offset samples with silence : Yes
Delete leading and trailing silent blocks : No
Null samples used in CRC calculations : Yes
Used interface : Native Win32 interface for Win NT & 2000
Gap handling : Appended to previous track
Used output format : User Defined Encoder
Selected bitrate : 896 kBit/s
Quality : High
Add ID3 tag : No
Command line compressor : C:\Tool\CD\EAC10\FLAC\FLAC.EXE
Additional command line options : -6 -V -T "ARTIST=%artist%" -T "TITLE=%title%" -T "ALBUM=%albumtitle%" -T "DATE=%year%" -T "TRACKNUMBER=%tracknr%" -T "GENRE=%genre%" -T "COMMENT=%comment%" -T "BAND=%albuminterpret%" -T "COMPOSER=%composer%" %haslyrics%--tag-from-file=LYRICS="%lyricsfile%"%haslyrics% -T "DISCNUMBER=%cdnumber%" -T "TOTALDISCS=%totalcds%" -T "TOTALTRACKS=%numtracks%" %hascover%--picture="%coverfile%"%hascover% %source% -o %dest%
TOC of the extracted CD
Track | Start | Length | Start sector | End sector
---------------------------------------------------------
1 | 0:00.00 | 5:43.51 | 0 | 25775
2 | 5:43.51 | 6:55.18 | 25776 | 56918
3 | 12:38.69 | 4:06.13 | 56919 | 75381
4 | 16:45.07 | 6:32.73 | 75382 | 104854
5 | 23:18.05 | 5:58.55 | 104855 | 131759
6 | 29:16.60 | 10:42.46 | 131760 | 179955
7 | 39:59.31 | 4:06.39 | 179956 | 198444
8 | 44:05.70 | 5:51.50 | 198445 | 224819
9 | 49:57.45 | 6:03.15 | 224820 | 252059
Track 1
Filename C:\! LUSHLIFE\UL\Odeon Pope & Dave Burrell - Changes & Chances (1999) [FLAC] {CIMP 191}\01 - Three Four vs. Four Four.wav
Pre-gap length 0:00:02.00
Peak level 95.2 %
Extraction speed 3.5 X
Track quality 100.0 %
Test CRC 4B606D95
Copy CRC 4B606D95
Track not present in AccurateRip database
Copy OK
Track 2
Filename C:\! LUSHLIFE\UL\Odeon Pope & Dave Burrell - Changes & Chances (1999) [FLAC] {CIMP 191}\02 - Full Moon in the Village.wav
Pre-gap length 0:00:02.57
Peak level 68.1 %
Extraction speed 3.6 X
Track quality 100.0 %
Test CRC 71EE27FB
Copy CRC 71EE27FB
Track not present in AccurateRip database
Copy OK
Track 3
Filename C:\! LUSHLIFE\UL\Odeon Pope & Dave Burrell - Changes & Chances (1999) [FLAC] {CIMP 191}\03 - Opal.wav
Pre-gap length 0:00:02.56
Peak level 81.5 %
Extraction speed 3.4 X
Track quality 100.0 %
Test CRC FEA4F4F0
Copy CRC FEA4F4F0
Track not present in AccurateRip database
Copy OK
Track 4
Filename C:\! LUSHLIFE\UL\Odeon Pope & Dave Burrell - Changes & Chances (1999) [FLAC] {CIMP 191}\04 - Nea Politan Minor Pt. 2.wav
Pre-gap length 0:00:02.57
Peak level 95.9 %
Extraction speed 3.6 X
Track quality 100.0 %
Test CRC A2FFB30E
Copy CRC A2FFB30E
Track not present in AccurateRip database
Copy OK
Track 5
Filename C:\! LUSHLIFE\UL\Odeon Pope & Dave Burrell - Changes & Chances (1999) [FLAC] {CIMP 191}\05 - Changes.wav
Pre-gap length 0:00:02.57
Peak level 53.5 %
Extraction speed 3.4 X
Track quality 100.0 %
Test CRC 8A96A27A
Copy CRC 8A96A27A
Track not present in AccurateRip database
Copy OK
Track 6
Filename C:\! LUSHLIFE\UL\Odeon Pope & Dave Burrell - Changes & Chances (1999) [FLAC] {CIMP 191}\06 - Early On (Dedicated to Wanja).wav
Pre-gap length 0:00:02.57
Peak level 90.7 %
Extraction speed 3.4 X
Track quality 100.0 %
Test CRC BF47E270
Copy CRC BF47E270
Track not present in AccurateRip database
Copy OK
Track 7
Filename C:\! LUSHLIFE\UL\Odeon Pope & Dave Burrell - Changes & Chances (1999) [FLAC] {CIMP 191}\07 - Me and You.wav
Pre-gap length 0:00:02.57
Peak level 62.7 %
Extraction speed 3.5 X
Track quality 100.0 %
Test CRC BA216CA8
Copy CRC BA216CA8
Track not present in AccurateRip database
Copy OK
Track 8
Filename C:\! LUSHLIFE\UL\Odeon Pope & Dave Burrell - Changes & Chances (1999) [FLAC] {CIMP 191}\08 - Tempo.wav
Pre-gap length 0:00:02.57
Peak level 78.9 %
Extraction speed 3.6 X
Track quality 100.0 %
Test CRC 7B34A0BE
Copy CRC 7B34A0BE
Track not present in AccurateRip database
Copy OK
Track 9
Filename C:\! LUSHLIFE\UL\Odeon Pope & Dave Burrell - Changes & Chances (1999) [FLAC] {CIMP 191}\09 - Chances.wav
Pre-gap length 0:00:02.57
Peak level 96.8 %
Extraction speed 3.1 X
Track quality 99.9 %
Test CRC 7F768DA1
Copy CRC 7F768DA1
Track not present in AccurateRip database
Copy OK
None of the tracks are present in the AccurateRip database
No errors occurred
End of status report
---- CUETools DB Plugin V2.1.3
[CTDB TOCID: lh2CdpZyhMM0O1UqudYe3mYabS0-] disk not present in database, Submit result: lh2CdpZyhMM0O1UqudYe3mYabS0- has been uploaded
==== Log checksum CAC2C097F8CB4F3DB237107D186C37DF7512B49A918336588B37F40EA7B6152E ====
------------------------------------------------------------
Exact Audio Copy V1.0 beta 3 from 29. August 2011
EAC extraction logfile from 16. September 2012, 22:31
Odeon Pope & Dave Burrell / Changes & Chances
Used drive : TSSTcorpCDDVDW SH-S222A Adapter: 1 ID: 0
Read mode : Secure
Utilize accurate stream : Yes
Defeat audio cache : Yes
Make use of C2 pointers : No
Read offset correction : 6
Overread into Lead-In and Lead-Out : No
Fill up missing offset samples with silence : Yes
Delete leading and trailing silent blocks : No
Null samples used in CRC calculations : Yes
Used interface : Native Win32 interface for Win NT & 2000
Gap handling : Appended to previous track
Used output format : User Defined Encoder
Selected bitrate : 896 kBit/s
Quality : High
Add ID3 tag : No
Command line compressor : C:\Tool\CD\EAC10\FLAC\FLAC.EXE
Additional command line options : -6 -V -T "ARTIST=%artist%" -T "TITLE=%title%" -T "ALBUM=%albumtitle%" -T "DATE=%year%" -T "TRACKNUMBER=%tracknr%" -T "GENRE=%genre%" -T "COMMENT=%comment%" -T "BAND=%albuminterpret%" -T "COMPOSER=%composer%" %haslyrics%--tag-from-file=LYRICS="%lyricsfile%"%haslyrics% -T "DISCNUMBER=%cdnumber%" -T "TOTALDISCS=%totalcds%" -T "TOTALTRACKS=%numtracks%" %hascover%--picture="%coverfile%"%hascover% %source% -o %dest%
TOC of the extracted CD
Track | Start | Length | Start sector | End sector
---------------------------------------------------------
1 | 0:00.00 | 5:43.51 | 0 | 25775
2 | 5:43.51 | 6:55.18 | 25776 | 56918
3 | 12:38.69 | 4:06.13 | 56919 | 75381
4 | 16:45.07 | 6:32.73 | 75382 | 104854
5 | 23:18.05 | 5:58.55 | 104855 | 131759
6 | 29:16.60 | 10:42.46 | 131760 | 179955
7 | 39:59.31 | 4:06.39 | 179956 | 198444
8 | 44:05.70 | 5:51.50 | 198445 | 224819
9 | 49:57.45 | 6:03.15 | 224820 | 252059
Track 1
Filename C:\! LUSHLIFE\UL\Odeon Pope & Dave Burrell - Changes & Chances (1999) [FLAC] {CIMP 191}\01 - Three Four vs. Four Four.wav
Pre-gap length 0:00:02.00
Peak level 95.2 %
Extraction speed 3.5 X
Track quality 100.0 %
Test CRC 4B606D95
Copy CRC 4B606D95
Track not present in AccurateRip database
Copy OK
Track 2
Filename C:\! LUSHLIFE\UL\Odeon Pope & Dave Burrell - Changes & Chances (1999) [FLAC] {CIMP 191}\02 - Full Moon in the Village.wav
Pre-gap length 0:00:02.57
Peak level 68.1 %
Extraction speed 3.6 X
Track quality 100.0 %
Test CRC 71EE27FB
Copy CRC 71EE27FB
Track not present in AccurateRip database
Copy OK
Track 3
Filename C:\! LUSHLIFE\UL\Odeon Pope & Dave Burrell - Changes & Chances (1999) [FLAC] {CIMP 191}\03 - Opal.wav
Pre-gap length 0:00:02.56
Peak level 81.5 %
Extraction speed 3.4 X
Track quality 100.0 %
Test CRC FEA4F4F0
Copy CRC FEA4F4F0
Track not present in AccurateRip database
Copy OK
Track 4
Filename C:\! LUSHLIFE\UL\Odeon Pope & Dave Burrell - Changes & Chances (1999) [FLAC] {CIMP 191}\04 - Nea Politan Minor Pt. 2.wav
Pre-gap length 0:00:02.57
Peak level 95.9 %
Extraction speed 3.6 X
Track quality 100.0 %
Test CRC A2FFB30E
Copy CRC A2FFB30E
Track not present in AccurateRip database
Copy OK
Track 5
Filename C:\! LUSHLIFE\UL\Odeon Pope & Dave Burrell - Changes & Chances (1999) [FLAC] {CIMP 191}\05 - Changes.wav
Pre-gap length 0:00:02.57
Peak level 53.5 %
Extraction speed 3.4 X
Track quality 100.0 %
Test CRC 8A96A27A
Copy CRC 8A96A27A
Track not present in AccurateRip database
Copy OK
Track 6
Filename C:\! LUSHLIFE\UL\Odeon Pope & Dave Burrell - Changes & Chances (1999) [FLAC] {CIMP 191}\06 - Early On (Dedicated to Wanja).wav
Pre-gap length 0:00:02.57
Peak level 90.7 %
Extraction speed 3.4 X
Track quality 100.0 %
Test CRC BF47E270
Copy CRC BF47E270
Track not present in AccurateRip database
Copy OK
Track 7
Filename C:\! LUSHLIFE\UL\Odeon Pope & Dave Burrell - Changes & Chances (1999) [FLAC] {CIMP 191}\07 - Me and You.wav
Pre-gap length 0:00:02.57
Peak level 62.7 %
Extraction speed 3.5 X
Track quality 100.0 %
Test CRC BA216CA8
Copy CRC BA216CA8
Track not present in AccurateRip database
Copy OK
Track 8
Filename C:\! LUSHLIFE\UL\Odeon Pope & Dave Burrell - Changes & Chances (1999) [FLAC] {CIMP 191}\08 - Tempo.wav
Pre-gap length 0:00:02.57
Peak level 78.9 %
Extraction speed 3.6 X
Track quality 100.0 %
Test CRC 7B34A0BE
Copy CRC 7B34A0BE
Track not present in AccurateRip database
Copy OK
Track 9
Filename C:\! LUSHLIFE\UL\Odeon Pope & Dave Burrell - Changes & Chances (1999) [FLAC] {CIMP 191}\09 - Chances.wav
Pre-gap length 0:00:02.57
Peak level 96.8 %
Extraction speed 3.1 X
Track quality 99.9 %
Test CRC 7F768DA1
Copy CRC 7F768DA1
Track not present in AccurateRip database
Copy OK
None of the tracks are present in the AccurateRip database
No errors occurred
End of status report
---- CUETools DB Plugin V2.1.3
[CTDB TOCID: lh2CdpZyhMM0O1UqudYe3mYabS0-] disk not present in database, Submit result: lh2CdpZyhMM0O1UqudYe3mYabS0- has been uploaded
==== Log checksum CAC2C097F8CB4F3DB237107D186C37DF7512B49A918336588B37F40EA7B6152E ====
 
.cue
REM GENRE Jazz
REM DATE 1999
REM DISCID 740D2009
REM COMMENT "ExactAudioCopy v1.0b3"
PERFORMER "Odeon Pope & Dave Burrell"
TITLE "Changes & Chances"
FILE "01 - Three Four vs. Four Four.wav" WAVE
TRACK 01 AUDIO
TITLE "Three Four vs. Four Four"
PERFORMER "Odeon Pope & Dave Burrell"
INDEX 01 00:00:00
TRACK 02 AUDIO
TITLE "Full Moon in the Village"
PERFORMER "Odeon Pope & Dave Burrell"
INDEX 00 05:40:69
FILE "02 - Full Moon in the Village.wav" WAVE
INDEX 01 00:00:00
TRACK 03 AUDIO
TITLE "Opal"
PERFORMER "Odeon Pope & Dave Burrell"
INDEX 00 06:52:37
FILE "03 - Opal.wav" WAVE
INDEX 01 00:00:00
TRACK 04 AUDIO
TITLE "Nea Politan Minor Pt. 2"
PERFORMER "Odeon Pope & Dave Burrell"
INDEX 00 04:03:31
FILE "04 - Nea Politan Minor Pt. 2.wav" WAVE
INDEX 01 00:00:00
TRACK 05 AUDIO
TITLE "Changes"
PERFORMER "Odeon Pope & Dave Burrell"
INDEX 00 06:30:16
FILE "05 - Changes.wav" WAVE
INDEX 01 00:00:00
TRACK 06 AUDIO
TITLE "Early On (Dedicated to Wanja)"
PERFORMER "Odeon Pope & Dave Burrell"
INDEX 00 05:55:73
FILE "06 - Early On (Dedicated to Wanja).wav" WAVE
INDEX 01 00:00:00
TRACK 07 AUDIO
TITLE "Me and You"
PERFORMER "Odeon Pope & Dave Burrell"
INDEX 00 10:39:64
FILE "07 - Me and You.wav" WAVE
INDEX 01 00:00:00
TRACK 08 AUDIO
TITLE "Tempo"
PERFORMER "Odeon Pope & Dave Burrell"
INDEX 00 04:03:57
FILE "08 - Tempo.wav" WAVE
INDEX 01 00:00:00
TRACK 09 AUDIO
TITLE "Chances"
PERFORMER "Odeon Pope & Dave Burrell"
INDEX 00 05:48:68
FILE "09 - Chances.wav" WAVE
INDEX 01 00:00:00

другие релизы
Download available for power users only.
05:24
418
Нет комментариев. Ваш будет первым!