Вы используете незарегистрированную версию компонента "Вкладки"!

Поиск

(free jazz, avant-garde) Fred Hess Quartet - Exposed (2001), FLAC (tracks+.cue), lossless

(free jazz, avant-garde) Fred Hess Quartet - Exposed (2001), FLAC (tracks+.cue), lossless
Треклист:


Fred Hess Quartet - Exposed (2001) {CIMP 249}

Жанр: free jazz, avant-garde
Год выпуска: 2001
Издатель (лейбл):CIMP 249
Формат: FLAC (tracks+.cue)
Битрейт аудио: lossless
Продолжительность 1`07`45
Источник: what.cd, szakall
Fred Hess - tenor saxophone
Paul Smoker - trumpet
Ken Filiano - bass
Damon Short - drums
Recorded at The Spirit Room, Rossie, NY, June 11 & 12, 2001

tracks

01. Cruise
02. JHM
03. Changing Spectra
04. Going There
05. Joe Said
06. Circles Squares and Stars
07. Good Question


 
.log
Exact Audio Copy V1.0 beta 3 from 29. August 2011
EAC extraction logfile from 17. September 2012, 17:22
Fred Hess Quartet / Exposed
Used drive : TSSTcorpCDDVDW SH-S222A Adapter: 1 ID: 0
Read mode : Secure
Utilize accurate stream : Yes
Defeat audio cache : Yes
Make use of C2 pointers : No
Read offset correction : 6
Overread into Lead-In and Lead-Out : No
Fill up missing offset samples with silence : Yes
Delete leading and trailing silent blocks : No
Null samples used in CRC calculations : Yes
Used interface : Native Win32 interface for Win NT & 2000
Gap handling : Appended to previous track
Used output format : User Defined Encoder
Selected bitrate : 896 kBit/s
Quality : High
Add ID3 tag : No
Command line compressor : C:\Tool\CD\EAC10\FLAC\FLAC.EXE
Additional command line options : -6 -V -T "ARTIST=%artist%" -T "TITLE=%title%" -T "ALBUM=%albumtitle%" -T "DATE=%year%" -T "TRACKNUMBER=%tracknr%" -T "GENRE=%genre%" -T "COMMENT=%comment%" -T "BAND=%albuminterpret%" -T "COMPOSER=%composer%" %haslyrics%--tag-from-file=LYRICS="%lyricsfile%"%haslyrics% -T "DISCNUMBER=%cdnumber%" -T "TOTALDISCS=%totalcds%" -T "TOTALTRACKS=%numtracks%" %hascover%--picture="%coverfile%"%hascover% %source% -o %dest%
TOC of the extracted CD
Track | Start | Length | Start sector | End sector
---------------------------------------------------------
1 | 0:00.00 | 8:42.57 | 0 | 39206
2 | 8:42.57 | 8:22.28 | 39207 | 76884
3 | 17:05.10 | 8:13.10 | 76885 | 113869
4 | 25:18.20 | 13:10.59 | 113870 | 173178
5 | 38:29.04 | 11:35.06 | 173179 | 225309
6 | 50:04.10 | 9:56.38 | 225310 | 270047
7 | 60:00.48 | 7:44.51 | 270048 | 304898
Track 1
Filename C:\! LUSHLIFE\UL\Fred Gess Quartet - Exposed (2001) [FLAC] {CIMP 249}\01 - Cruise.wav
Pre-gap length 0:00:02.00
Peak level 97.7 %
Extraction speed 3.5 X
Track quality 100.0 %
Test CRC E466C953
Copy CRC E466C953
Track not present in AccurateRip database
Copy OK
Track 2
Filename C:\! LUSHLIFE\UL\Fred Gess Quartet - Exposed (2001) [FLAC] {CIMP 249}\02 - JHM.wav
Pre-gap length 0:00:02.57
Peak level 100.0 %
Extraction speed 3.6 X
Track quality 100.0 %
Test CRC 4BF36FCE
Copy CRC 4BF36FCE
Track not present in AccurateRip database
Copy OK
Track 3
Filename C:\! LUSHLIFE\UL\Fred Gess Quartet - Exposed (2001) [FLAC] {CIMP 249}\03 - Changing Spectra.wav
Pre-gap length 0:00:02.57
Peak level 69.4 %
Extraction speed 3.6 X
Track quality 100.0 %
Test CRC 73468727
Copy CRC 73468727
Track not present in AccurateRip database
Copy OK
Track 4
Filename C:\! LUSHLIFE\UL\Fred Gess Quartet - Exposed (2001) [FLAC] {CIMP 249}\04 - Going There.wav
Pre-gap length 0:00:02.57
Peak level 100.0 %
Extraction speed 3.6 X
Track quality 99.9 %
Test CRC 93112B1B
Copy CRC 93112B1B
Track not present in AccurateRip database
Copy OK
Track 5
Filename C:\! LUSHLIFE\UL\Fred Gess Quartet - Exposed (2001) [FLAC] {CIMP 249}\05 - Joe Said.wav
Pre-gap length 0:00:02.57
Peak level 100.0 %
Extraction speed 3.7 X
Track quality 100.0 %
Test CRC 82DD0448
Copy CRC 82DD0448
Track not present in AccurateRip database
Copy OK
Track 6
Filename C:\! LUSHLIFE\UL\Fred Gess Quartet - Exposed (2001) [FLAC] {CIMP 249}\06 - Circles Squares And Stars.wav
Pre-gap length 0:00:02.57
Peak level 90.3 %
Extraction speed 3.6 X
Track quality 100.0 %
Test CRC B8C8B055
Copy CRC B8C8B055
Track not present in AccurateRip database
Copy OK
Track 7
Filename C:\! LUSHLIFE\UL\Fred Gess Quartet - Exposed (2001) [FLAC] {CIMP 249}\07 - Good Question.wav
Pre-gap length 0:00:02.57
Peak level 89.5 %
Extraction speed 3.2 X
Track quality 99.9 %
Test CRC 5E20923C
Copy CRC 5E20923C
Track not present in AccurateRip database
Copy OK
None of the tracks are present in the AccurateRip database
No errors occurred
End of status report
---- CUETools DB Plugin V2.1.3
[CTDB TOCID: ajycpxQzyPQP.3bXg0tNHItRNao-] disk not present in database, Submit result: ajycpxQzyPQP.3bXg0tNHItRNao- has been uploaded
==== Log checksum D103D8BED58C827BFA7807E597C61F050041A5F2FC6EE15C1488BF9F946DA3C1 ====
------------------------------------------------------------
Exact Audio Copy V1.0 beta 3 from 29. August 2011
EAC extraction logfile from 17. September 2012, 17:22
Fred Hess Quartet / Exposed
Used drive : TSSTcorpCDDVDW SH-S222A Adapter: 1 ID: 0
Read mode : Secure
Utilize accurate stream : Yes
Defeat audio cache : Yes
Make use of C2 pointers : No
Read offset correction : 6
Overread into Lead-In and Lead-Out : No
Fill up missing offset samples with silence : Yes
Delete leading and trailing silent blocks : No
Null samples used in CRC calculations : Yes
Used interface : Native Win32 interface for Win NT & 2000
Gap handling : Appended to previous track
Used output format : User Defined Encoder
Selected bitrate : 896 kBit/s
Quality : High
Add ID3 tag : No
Command line compressor : C:\Tool\CD\EAC10\FLAC\FLAC.EXE
Additional command line options : -6 -V -T "ARTIST=%artist%" -T "TITLE=%title%" -T "ALBUM=%albumtitle%" -T "DATE=%year%" -T "TRACKNUMBER=%tracknr%" -T "GENRE=%genre%" -T "COMMENT=%comment%" -T "BAND=%albuminterpret%" -T "COMPOSER=%composer%" %haslyrics%--tag-from-file=LYRICS="%lyricsfile%"%haslyrics% -T "DISCNUMBER=%cdnumber%" -T "TOTALDISCS=%totalcds%" -T "TOTALTRACKS=%numtracks%" %hascover%--picture="%coverfile%"%hascover% %source% -o %dest%
TOC of the extracted CD
Track | Start | Length | Start sector | End sector
---------------------------------------------------------
1 | 0:00.00 | 8:42.57 | 0 | 39206
2 | 8:42.57 | 8:22.28 | 39207 | 76884
3 | 17:05.10 | 8:13.10 | 76885 | 113869
4 | 25:18.20 | 13:10.59 | 113870 | 173178
5 | 38:29.04 | 11:35.06 | 173179 | 225309
6 | 50:04.10 | 9:56.38 | 225310 | 270047
7 | 60:00.48 | 7:44.51 | 270048 | 304898
Track 1
Filename C:\! LUSHLIFE\UL\Fred Gess Quartet - Exposed (2001) [FLAC] {CIMP 249}\01 - Cruise.wav
Pre-gap length 0:00:02.00
Peak level 97.7 %
Extraction speed 3.5 X
Track quality 100.0 %
Test CRC E466C953
Copy CRC E466C953
Track not present in AccurateRip database
Copy OK
Track 2
Filename C:\! LUSHLIFE\UL\Fred Gess Quartet - Exposed (2001) [FLAC] {CIMP 249}\02 - JHM.wav
Pre-gap length 0:00:02.57
Peak level 100.0 %
Extraction speed 3.6 X
Track quality 100.0 %
Test CRC 4BF36FCE
Copy CRC 4BF36FCE
Track not present in AccurateRip database
Copy OK
Track 3
Filename C:\! LUSHLIFE\UL\Fred Gess Quartet - Exposed (2001) [FLAC] {CIMP 249}\03 - Changing Spectra.wav
Pre-gap length 0:00:02.57
Peak level 69.4 %
Extraction speed 3.6 X
Track quality 100.0 %
Test CRC 73468727
Copy CRC 73468727
Track not present in AccurateRip database
Copy OK
Track 4
Filename C:\! LUSHLIFE\UL\Fred Gess Quartet - Exposed (2001) [FLAC] {CIMP 249}\04 - Going There.wav
Pre-gap length 0:00:02.57
Peak level 100.0 %
Extraction speed 3.6 X
Track quality 99.9 %
Test CRC 93112B1B
Copy CRC 93112B1B
Track not present in AccurateRip database
Copy OK
Track 5
Filename C:\! LUSHLIFE\UL\Fred Gess Quartet - Exposed (2001) [FLAC] {CIMP 249}\05 - Joe Said.wav
Pre-gap length 0:00:02.57
Peak level 100.0 %
Extraction speed 3.7 X
Track quality 100.0 %
Test CRC 82DD0448
Copy CRC 82DD0448
Track not present in AccurateRip database
Copy OK
Track 6
Filename C:\! LUSHLIFE\UL\Fred Gess Quartet - Exposed (2001) [FLAC] {CIMP 249}\06 - Circles Squares And Stars.wav
Pre-gap length 0:00:02.57
Peak level 90.3 %
Extraction speed 3.6 X
Track quality 100.0 %
Test CRC B8C8B055
Copy CRC B8C8B055
Track not present in AccurateRip database
Copy OK
Track 7
Filename C:\! LUSHLIFE\UL\Fred Gess Quartet - Exposed (2001) [FLAC] {CIMP 249}\07 - Good Question.wav
Pre-gap length 0:00:02.57
Peak level 89.5 %
Extraction speed 3.2 X
Track quality 99.9 %
Test CRC 5E20923C
Copy CRC 5E20923C
Track not present in AccurateRip database
Copy OK
None of the tracks are present in the AccurateRip database
No errors occurred
End of status report
---- CUETools DB Plugin V2.1.3
[CTDB TOCID: ajycpxQzyPQP.3bXg0tNHItRNao-] disk not present in database, Submit result: ajycpxQzyPQP.3bXg0tNHItRNao- has been uploaded
==== Log checksum D103D8BED58C827BFA7807E597C61F050041A5F2FC6EE15C1488BF9F946DA3C1 ====
 
.cue
REM GENRE Jazz
REM DATE 2001
REM DISCID 3A0FE107
REM COMMENT "ExactAudioCopy v1.0b3"
PERFORMER "Fred Hess Quartet"
TITLE "Exposed"
FILE "01 - Cruise.wav" WAVE
TRACK 01 AUDIO
TITLE "Cruise"
PERFORMER "Fred Hess Quartet"
INDEX 01 00:00:00
TRACK 02 AUDIO
TITLE "JHM"
PERFORMER "Fred Hess Quartet"
INDEX 00 08:40:00
FILE "02 - JHM.wav" WAVE
INDEX 01 00:00:00
TRACK 03 AUDIO
TITLE "Changing Spectra"
PERFORMER "Fred Hess Quartet"
INDEX 00 08:19:46
FILE "03 - Changing Spectra.wav" WAVE
INDEX 01 00:00:00
TRACK 04 AUDIO
TITLE "Going There"
PERFORMER "Fred Hess Quartet"
INDEX 00 08:10:28
FILE "04 - Going There.wav" WAVE
INDEX 01 00:00:00
TRACK 05 AUDIO
TITLE "Joe Said"
PERFORMER "Fred Hess Quartet"
INDEX 00 13:08:02
FILE "05 - Joe Said.wav" WAVE
INDEX 01 00:00:00
TRACK 06 AUDIO
TITLE "Circles Squares And Stars"
PERFORMER "Fred Hess Quartet"
INDEX 00 11:32:24
FILE "06 - Circles Squares And Stars.wav" WAVE
INDEX 01 00:00:00
TRACK 07 AUDIO
TITLE "Good Question"
PERFORMER "Fred Hess Quartet"
INDEX 00 09:53:56
FILE "07 - Good Question.wav" WAVE
INDEX 01 00:00:00

другие релизы
Any questions -> support@pro-jazz.com. По всем вопросам пишите -> support@pro-jazz.com
06:24
192
Нет комментариев. Ваш будет первым!