Вы используете незарегистрированную версию компонента "Вкладки"!

Поиск

( free jazz, avant-garde) Irene Schweizer - To Whom It May Concern (2012) , FLAC (tracks+.cue), lossless

( free jazz, avant-garde) Irene Schweizer - To Whom It May Concern (2012) , FLAC (tracks+.cue), lossless
Треклист:


Irene Schweizer - To Whom It May Concern (2012)

Жанр: free jazz, avant-garde
Год выпуска: 2012
Издатель (лейбл):
Формат: FLAC (tracks+.cue)
Битрейт аудио: lossless
Продолжительность 51`23
Источник: what.cd

tracks

1. To Whom It May Concern (Irène Schweizer) 10:48
2. Hüben ohne drüben (Irène Schweizer) 4:40
3. Scratching at the Tonhalle (Irène Schweizer) 4:52
4. Jungle Beat III (Irène Schweizer) 3:05 /
The Train and the River (J. Giuffre) 2:45 (5 : 50)
5. Homage to Don Cherry (Irène Schweizer) 3:59
6. Ida Lupino (Carla Bley) 3:49
7. Four in One (Thelonious Monk) 2:52
8. Bleu Foncé (Irène Schweizer) 4:18
9. Xaba (Dollar Brand) 4:25
10. Final Ending (Irène Schweizer) 5:51


 
.log
Exact Audio Copy V1.0 beta 3 from 29. August 2011
EAC extraction logfile from 4. December 2012, 14:21
Irene Schweizer / To Whom It May Concern
Used drive : PLEXTOR DVDR PX-860A Adapter: 0 ID: 0
Read mode : Secure
Utilize accurate stream : Yes
Defeat audio cache : Yes
Make use of C2 pointers : No
Read offset correction : 96
Overread into Lead-In and Lead-Out : No
Fill up missing offset samples with silence : Yes
Delete leading and trailing silent blocks : No
Null samples used in CRC calculations : Yes
Used interface : Native Win32 interface for Win NT & 2000
Gap handling : Appended to previous track
Used output format : User Defined Encoder
Selected bitrate : 1024 kBit/s
Quality : High
Add ID3 tag : No
Command line compressor : C:\Program Files\Exact Audio Copy\Flac\flac.exe
Additional command line options : -8 -V -T "ARTIST=%artist%" -T "TITLE=%title%" -T "ALBUM=%albumtitle%" -T "DATE=%year%" -T "TRACKNUMBER=%tracknr%" -T "GENRE=%genre%" -T "PERFORMER=%albuminterpret%" -T "COMPOSER=%composer%" %haslyrics%--tag-from-file=LYRICS="%lyricsfile%"%haslyrics% -T "ALBUMARTIST=%albumartist%" -T "DISCNUMBER=%cdnumber%" -T "TOTALDISCS=%totalcds%" -T "TOTALTRACKS=%numtracks%" -T "COMMENT=EAC Secure Mode, Test & Copy, AccurateRip, FLAC -8" %source% -o %dest%
TOC of the extracted CD
Track | Start | Length | Start sector | End sector
---------------------------------------------------------
1 | 0:00.00 | 10:47.72 | 0 | 48596
2 | 10:47.72 | 4:39.55 | 48597 | 69576
3 | 15:27.52 | 4:52.25 | 69577 | 91501
4 | 20:20.02 | 5:49.52 | 91502 | 117728
5 | 26:09.54 | 3:59.03 | 117729 | 135656
6 | 30:08.57 | 3:48.65 | 135657 | 152821
7 | 33:57.47 | 2:51.53 | 152822 | 165699
8 | 36:49.25 | 4:18.07 | 165700 | 185056
9 | 41:07.32 | 4:24.63 | 185057 | 204919
10 | 45:32.20 | 5:50.41 | 204920 | 231210
Track 1
Filename I:\DL\Irene Schweizer - To Whom It May Concern (2011) [FLAC]\01 - To Whom It May Concern.wav
Pre-gap length 0:00:02.00
Peak level 95.1 %
Extraction speed 1.8 X
Track quality 100.0 %
Test CRC 648D7555
Copy CRC 648D7555
Accurately ripped (confidence 2) [708F0DE3] (AR v2)
Copy OK
Track 2
Filename I:\DL\Irene Schweizer - To Whom It May Concern (2011) [FLAC]\02 - Huben ohne druben.wav
Peak level 80.8 %
Extraction speed 2.0 X
Track quality 100.0 %
Test CRC 46F7B232
Copy CRC 46F7B232
Accurately ripped (confidence 2) [8A1B4897] (AR v2)
Copy OK
Track 3
Filename I:\DL\Irene Schweizer - To Whom It May Concern (2011) [FLAC]\03 - Scratching At The Tonhalle.wav
Peak level 91.7 %
Extraction speed 2.2 X
Track quality 100.0 %
Test CRC 8FCF7454
Copy CRC 8FCF7454
Accurately ripped (confidence 2) [91E155AC] (AR v2)
Copy OK
Track 4
Filename I:\DL\Irene Schweizer - To Whom It May Concern (2011) [FLAC]\04 - Jungle Beat III - The Train And The River.wav
Peak level 97.1 %
Extraction speed 2.4 X
Track quality 100.0 %
Test CRC DAC8D499
Copy CRC DAC8D499
Accurately ripped (confidence 2) [14F20F06] (AR v2)
Copy OK
Track 5
Filename I:\DL\Irene Schweizer - To Whom It May Concern (2011) [FLAC]\05 - Homage To Don Cherry.wav
Peak level 97.0 %
Extraction speed 2.1 X
Track quality 99.9 %
Test CRC B0F03A7E
Copy CRC B0F03A7E
Accurately ripped (confidence 2) [C1F11272] (AR v2)
Copy OK
Track 6
Filename I:\DL\Irene Schweizer - To Whom It May Concern (2011) [FLAC]\06 - Ida Lupino.wav
Peak level 96.7 %
Extraction speed 2.5 X
Track quality 100.0 %
Test CRC DD3D014E
Copy CRC DD3D014E
Accurately ripped (confidence 2) [874CE437] (AR v2)
Copy OK
Track 7
Filename I:\DL\Irene Schweizer - To Whom It May Concern (2011) [FLAC]\07 - Four In One.wav
Peak level 96.8 %
Extraction speed 2.4 X
Track quality 100.0 %
Test CRC 393564DA
Copy CRC 393564DA
Accurately ripped (confidence 2) [264CB9B9] (AR v2)
Copy OK
Track 8
Filename I:\DL\Irene Schweizer - To Whom It May Concern (2011) [FLAC]\08 - Bleu Fonce.wav
Peak level 87.7 %
Extraction speed 2.3 X
Track quality 99.9 %
Test CRC 56613271
Copy CRC 56613271
Accurately ripped (confidence 2) [ACA42493] (AR v2)
Copy OK
Track 9
Filename I:\DL\Irene Schweizer - To Whom It May Concern (2011) [FLAC]\09 - Xaba.wav
Peak level 86.1 %
Extraction speed 2.8 X
Track quality 100.0 %
Test CRC 935F8081
Copy CRC 935F8081
Accurately ripped (confidence 2) [C05C20C6] (AR v2)
Copy OK
Track 10
Filename I:\DL\Irene Schweizer - To Whom It May Concern (2011) [FLAC]\10 - Final Ending.wav
Peak level 90.6 %
Extraction speed 3.0 X
Track quality 100.0 %
Test CRC F528E6E6
Copy CRC F528E6E6
Accurately ripped (confidence 2) [80FD6B17] (AR v2)
Copy OK
All tracks accurately ripped
No errors occurred
End of status report
---- CUETools DB Plugin V2.1.3
[CTDB TOCID: RTFgdBYteog9X.1K3pOJHT7aO38-] found, Submit result: RTFgdBYteog9X.1K3pOJHT7aO38- has been confirmed
[59106228] (1/1) Accurately ripped
==== Log checksum 306376D555641158F7B12F43480C20FBA84074EBBF09F74D299658C2F5C431E3 ====
 
.cue
REM GENRE Jazz
REM DATE 2011
REM DISCID 810C0A0A
REM COMMENT "ExactAudioCopy v1.0b3"
CATALOG 7640120192006
PERFORMER "Irene Schweizer"
TITLE "To Whom It May Concern"
FILE "01 - To Whom It May Concern.wav" WAVE
TRACK 01 AUDIO
TITLE "To Whom It May Concern"
PERFORMER "Irene Schweizer"
ISRC CH2701201600
INDEX 01 00:00:00
INDEX 02 10:40:50
FILE "02 - Huben ohne druben.wav" WAVE
TRACK 02 AUDIO
TITLE "Hьben ohne drьben"
PERFORMER "Irene Schweizer"
ISRC CH2701201601
INDEX 01 00:00:00
INDEX 02 04:22:59
FILE "03 - Scratching At The Tonhalle.wav" WAVE
TRACK 03 AUDIO
TITLE "Scratching At The Tonhalle"
PERFORMER "Irene Schweizer"
ISRC CH2701201602
INDEX 01 00:00:00
INDEX 02 04:32:47
FILE "04 - Jungle Beat III - The Train And The River.wav" WAVE
TRACK 04 AUDIO
TITLE "Jungle Beat III - The Train And The River"
PERFORMER "Irene Schweizer"
ISRC CH2701201603
INDEX 01 00:00:00
FILE "05 - Homage To Don Cherry.wav" WAVE
TRACK 05 AUDIO
TITLE "Homage To Don Cherry"
PERFORMER "Irene Schweizer"
ISRC CH2701201604
INDEX 01 00:00:00
INDEX 02 03:53:00
FILE "06 - Ida Lupino.wav" WAVE
TRACK 06 AUDIO
TITLE "Ida Lupino"
PERFORMER "Irene Schweizer"
ISRC CH2701201605
INDEX 01 00:00:00
FILE "07 - Four In One.wav" WAVE
TRACK 07 AUDIO
TITLE "Four In One"
PERFORMER "Irene Schweizer"
ISRC CH2701201606
INDEX 01 00:00:00
INDEX 02 02:33:61
FILE "08 - Bleu Fonce.wav" WAVE
TRACK 08 AUDIO
TITLE "Bleu Foncй"
PERFORMER "Irene Schweizer"
ISRC CH2701201607
INDEX 01 00:00:00
INDEX 02 03:55:41
FILE "09 - Xaba.wav" WAVE
TRACK 09 AUDIO
TITLE "Xaba"
PERFORMER "Irene Schweizer"
ISRC CH2701201608
INDEX 01 00:00:00
INDEX 02 04:04:22
FILE "10 - Final Ending.wav" WAVE
TRACK 10 AUDIO
TITLE "Final Ending"
PERFORMER "Irene Schweizer"
ISRC CH2701201609
INDEX 01 00:00:00
INDEX 02 05:10:22

другие релизы
Any questions -> support@pro-jazz.com. По всем вопросам пишите -> support@pro-jazz.com
06:23
173
Нет комментариев. Ваш будет первым!