Вы используете незарегистрированную версию компонента "Вкладки"!

Поиск

(Free Jazz, Big Band, British Jazz) Mike Gibbs Band - Just Ahead (2CD) - 1972, FLAC (tracks+.cue), lossless

(Free Jazz, Big Band, British Jazz) Mike Gibbs Band - Just Ahead (2CD) - 1972, FLAC (tracks+.cue), lossless
Треклист:
Mike Gibbs Band / Just Ahead (2CD)
Жанр: Free Jazz, Big Band, British Jazz
Страна-производитель диска: UK
Год издания: 2005
Издатель (лейбл): BGO Records
Номер по каталогу: BGOCD679
Страна: UK
Аудиокодек: FLAC (*.flac)
Тип рипа: tracks+.cue
Битрейт аудио: lossless
Продолжительность: 49:01 + 44:46
Источник (релизер): свой фирменный диск
Наличие сканов в содержимом раздачи: нет
Треклист:
 
CD1
1-1 Grow Your Own 8:11
1-2 Three 5:55
1-3 Country Roads 10:34
1-4 Mother Of The Dead Man 8:57
1-5 Just A Head 11:18
1-6 Fanfare 4:06
 
CD2
2-1 Nowhere 9:30
2-2 Sing Me Softly The Blues 14:00
2-3 So Long Gone 21:17
 
Лог создания рипа

 
CD1
Exact Audio Copy V1.0 beta 3 from 29. August 2011
EAC extraction logfile from 14. December 2012, 22:17
Michael Gibbs Band / Just Ahead
Used drive : PIONEER DVD-RW DVR-115D Adapter: 0 ID: 0
Read mode : Secure
Utilize accurate stream : Yes
Defeat audio cache : Yes
Make use of C2 pointers : No
Read offset correction : 48
Overread into Lead-In and Lead-Out : No
Fill up missing offset samples with silence : Yes
Delete leading and trailing silent blocks : No
Null samples used in CRC calculations : Yes
Used interface : Installed external ASPI interface
Gap handling : Appended to previous track
Used output format : User Defined Encoder
Selected bitrate : 896 kBit/s
Quality : High
Add ID3 tag : No
Command line compressor : C:\Program Files\Exact Audio Copy\FLAC\FLAC.EXE
Additional command line options : -6 -V -T "ARTIST=%artist%" -T "TITLE=%title%" -T "ALBUM=%albumtitle%" -T "DATE=%year%" -T "TRACKNUMBER=%tracknr%" -T "GENRE=%genre%" -T "COMMENT=%comment%" -T "BAND=%albuminterpret%" -T "COMPOSER=%composer%" %haslyrics%--tag-from-file=LYRICS="%lyricsfile%"%haslyrics% -T "DISCNUMBER=%cdnumber%" -T "TOTALDISCS=%totalcds%" -T "TOTALTRACKS=%numtracks%" %hascover%--picture="%coverfile%"%hascover% %source% -o %dest%
TOC of the extracted CD
Track | Start | Length | Start sector | End sector
---------------------------------------------------------
1 | 0:00.00 | 8:11.09 | 0 | 36833
2 | 8:11.09 | 5:55.19 | 36834 | 63477
3 | 14:06.28 | 10:34.19 | 63478 | 111046
4 | 24:40.47 | 8:56.45 | 111047 | 151291
5 | 33:37.17 | 11:18.16 | 151292 | 202157
6 | 44:55.33 | 4:06.36 | 202158 | 220643
Track 1
Filename D:\zzz\01 - Grow Your Own.wav
Pre-gap length 0:00:02.00
Peak level 100.0 %
Extraction speed 5.1 X
Track quality 100.0 %
Test CRC 7167CBBD
Copy CRC 7167CBBD
Accurately ripped (confidence 1) [ED07D405] (AR v1)
Copy OK
Track 2
Filename D:\zzz\02 - Three.wav
Peak level 86.1 %
Extraction speed 5.2 X
Track quality 99.9 %
Test CRC C6255891
Copy CRC C6255891
Accurately ripped (confidence 1) [2F584A44] (AR v1)
Copy OK
Track 3
Filename D:\zzz\03 - Country Roads.wav
Pre-gap length 0:00:00.46
Peak level 100.0 %
Extraction speed 6.7 X
Track quality 100.0 %
Test CRC 95B96172
Copy CRC 95B96172
Accurately ripped (confidence 1) [052CD1DC] (AR v1)
Copy OK
Track 4
Filename D:\zzz\04 - Mother of the Dead Man.wav
Pre-gap length 0:00:02.19
Peak level 100.0 %
Extraction speed 7.4 X
Track quality 100.0 %
Test CRC 3D4B5F1E
Copy CRC 3D4B5F1E
Accurately ripped (confidence 1) [7FECD5AC] (AR v1)
Copy OK
Track 5
Filename D:\zzz\05 - Just a Head.wav
Peak level 100.0 %
Extraction speed 8.1 X
Track quality 100.0 %
Test CRC 597EF0EC
Copy CRC 597EF0EC
Accurately ripped (confidence 1) [3E74862F] (AR v1)
Copy OK
Track 6
Filename D:\zzz\06 - Fanfare.wav
Peak level 100.0 %
Extraction speed 7.8 X
Track quality 100.0 %
Test CRC ADC7DCC6
Copy CRC ADC7DCC6
Accurately ripped (confidence 1) [62D6E168] (AR v1)
Copy OK
All tracks accurately ripped
No errors occurred
End of status report
==== Log checksum 206E52CC7CD199C0CA043B8E4C9A414F32C203BDCE9E69A53D2D8D8D56DBB385 ====
 
CD2
Exact Audio Copy V1.0 beta 3 from 29. August 2011
EAC extraction logfile from 14. December 2012, 22:43
Michael Gibbs Band / Just Ahead (disc 2)
Used drive : PIONEER DVD-RW DVR-115D Adapter: 0 ID: 0
Read mode : Secure
Utilize accurate stream : Yes
Defeat audio cache : Yes
Make use of C2 pointers : No
Read offset correction : 48
Overread into Lead-In and Lead-Out : No
Fill up missing offset samples with silence : Yes
Delete leading and trailing silent blocks : No
Null samples used in CRC calculations : Yes
Used interface : Installed external ASPI interface
Gap handling : Appended to previous track
Used output format : User Defined Encoder
Selected bitrate : 896 kBit/s
Quality : High
Add ID3 tag : No
Command line compressor : C:\Program Files\Exact Audio Copy\FLAC\FLAC.EXE
Additional command line options : -6 -V -T "ARTIST=%artist%" -T "TITLE=%title%" -T "ALBUM=%albumtitle%" -T "DATE=%year%" -T "TRACKNUMBER=%tracknr%" -T "GENRE=%genre%" -T "COMMENT=%comment%" -T "BAND=%albuminterpret%" -T "COMPOSER=%composer%" %haslyrics%--tag-from-file=LYRICS="%lyricsfile%"%haslyrics% -T "DISCNUMBER=%cdnumber%" -T "TOTALDISCS=%totalcds%" -T "TOTALTRACKS=%numtracks%" %hascover%--picture="%coverfile%"%hascover% %source% -o %dest%
TOC of the extracted CD
Track | Start | Length | Start sector | End sector
---------------------------------------------------------
1 | 0:00.00 | 9:29.58 | 0 | 42732
2 | 9:29.58 | 14:00.19 | 42733 | 105751
3 | 23:30.02 | 21:16.62 | 105752 | 201513
Track 1
Filename D:\zzz\01 - Nowhere.wav
Pre-gap length 0:00:02.00
Peak level 84.1 %
Extraction speed 5.2 X
Track quality 100.0 %
Test CRC E783E169
Copy CRC E783E169
Accurately ripped (confidence 1) [6EAC7048] (AR v1)
Copy OK
Track 2
Filename D:\zzz\02 - Sing Me Softly Of The Blues.wav
Peak level 84.1 %
Extraction speed 6.3 X
Track quality 99.9 %
Test CRC 4FA070E1
Copy CRC 4FA070E1
Accurately ripped (confidence 1) [3D09A3EA] (AR v1)
Copy OK
Track 3
Filename D:\zzz\03 - So Long Gone.wav
Pre-gap length 0:00:01.01
Peak level 94.4 %
Extraction speed 7.9 X
Track quality 100.0 %
Test CRC 53DDF42B
Copy CRC 53DDF42B
Accurately ripped (confidence 1) [FD5DCE57] (AR v1)
Copy OK
All tracks accurately ripped
No errors occurred
End of status report
==== Log checksum 575572442830BD91ABA44A3B717EB2A56134AC891A90D25D052585091E885C16 ====
 
Содержание индексной карты (.CUE)

 
CD1
REM GENRE Jazz
REM DATE 1972
REM DISCID 590B7D06
REM COMMENT "ExactAudioCopy v1.0b3"
PERFORMER "Michael Gibbs Band"
TITLE "Just Ahead"
FILE "01 - Grow Your Own.wav" WAVE
TRACK 01 AUDIO
TITLE "Grow Your Own"
PERFORMER "Michael Gibbs Band"
INDEX 01 00:00:00
FILE "02 - Three.wav" WAVE
TRACK 02 AUDIO
TITLE "Three"
PERFORMER "Michael Gibbs Band"
INDEX 01 00:00:00
TRACK 03 AUDIO
TITLE "Country Roads"
PERFORMER "Michael Gibbs Band"
INDEX 00 05:54:48
FILE "03 - Country Roads.wav" WAVE
INDEX 01 00:00:00
TRACK 04 AUDIO
TITLE "Mother of the Dead Man"
PERFORMER "Michael Gibbs Band"
INDEX 00 10:32:00
FILE "04 - Mother of the Dead Man.wav" WAVE
INDEX 01 00:00:00
FILE "05 - Just a Head.wav" WAVE
TRACK 05 AUDIO
TITLE "Just a Head"
PERFORMER "Michael Gibbs Band"
INDEX 01 00:00:00
FILE "06 - Fanfare.wav" WAVE
TRACK 06 AUDIO
TITLE "Fanfare"
PERFORMER "Michael Gibbs Band"
INDEX 01 00:00:00
 
CD2
REM GENRE Jazz
REM DATE 1972
REM DISCID 170A7E03
REM COMMENT "ExactAudioCopy v1.0b3"
PERFORMER "Michael Gibbs Band"
TITLE "Just Ahead (disc 2)"
FILE "01 - Nowhere.wav" WAVE
TRACK 01 AUDIO
TITLE "Nowhere"
PERFORMER "Michael Gibbs Band"
INDEX 01 00:00:00
FILE "02 - Sing Me Softly Of The Blues.wav" WAVE
TRACK 02 AUDIO
TITLE "Sing Me Softly Of The Blues"
PERFORMER "Michael Gibbs Band"
INDEX 01 00:00:00
TRACK 03 AUDIO
TITLE "So Long Gone"
PERFORMER "Michael Gibbs Band"
INDEX 00 13:59:18
FILE "03 - So Long Gone.wav" WAVE
INDEX 01 00:00:00
 
Лог проверки качества
d:\>d:\aucdtect -d/-m0 d:\zzz\*.wav
auCDtect: CD records authenticity detector, version 0.8.2
Copyright (c) 2004 Oleg Berngardt. All rights reserved.
Copyright (c) 2004 Alexander Djourik. All rights reserved.
------------------------------------------------------------
Processing file: [01. Grow Your Own.wav]
------------------------------------------------------------
This track looks like CDDA with probability 100%
------------------------------------------------------------
Processing file: [01. Nowhere.wav]
------------------------------------------------------------
This track looks like CDDA with probability 100%
------------------------------------------------------------
Processing file: [02. Sing Me Softly Of The Blues.wav]
------------------------------------------------------------
This track looks like CDDA with probability 100%
------------------------------------------------------------
Processing file: [02. Three.wav]
------------------------------------------------------------
This track looks like CDDA with probability 100%
------------------------------------------------------------
Processing file: [03. Country Roads.wav]
------------------------------------------------------------
This track looks like CDDA with probability 100%
------------------------------------------------------------
Processing file: [03. So Long Gone.wav]
------------------------------------------------------------
This track looks like CDDA with probability 100%
------------------------------------------------------------
Processing file: [04. Mother of the Dead Man.wav]
------------------------------------------------------------
This track looks like CDDA with probability 99%
------------------------------------------------------------
Processing file: [05. Just a Head.wav]
------------------------------------------------------------
This track looks like CDDA with probability 100%
------------------------------------------------------------
Processing file: [06. Fanfare.wav]
------------------------------------------------------------
This track looks like CDDA with probability 100%
------------------------------------------------------------
Final Conclusion:
------------------------------------------------------------
These tracks looks like CDDA with probability 100%
 
Состав
Alto Saxophone, Flute, Flute [Alto] – Ray Warleigh
Alto Saxophone, Soprano Saxophone, Flute, Piccolo Flute – Stan Sulzmann
Bass Guitar – Roy Babbington
Conductor [Uncredited] – Mike Gibbs
Drums – John Marshall
Electric Piano – John Taylor
Electric Piano [Fender Rhodes] – David MacRae
Guitar, Sitar [Electric] – Chris Spedding
Soprano Saxophone, Tenor Saxophone, Flute, Flute [Alto] – Alan Skidmore
Trombone – Chris Pyne
Trombone [Bass] – Geoff Perkins
Trombone [Tenor & Bass] – Malcolm Griffiths
Trumpet, Flugelhorn – Harry Becket, Henry Lowther, Ken Wheeler
Vibraphone, Percussion – Frank Ricotti
Any questions -> support@pro-jazz.com. По всем вопросам пишите -> support@pro-jazz.com
06:26
178
Нет комментариев. Ваш будет первым!