Вы используете незарегистрированную версию компонента "Вкладки"!

Поиск

(avant-garde jazz/modern creative/jazz-rock) Hermann Szobel - Szobel - 1976 (2012), (image+.cue), lossless

(avant-garde jazz/modern creative/jazz-rock) Hermann Szobel - Szobel - 1976 (2012), (image+.cue), lossless
Треклист:
Hermann Szobel / Szobel
Жанр: avant-garde jazz/modern creative/jazz-rock
Страна-производитель диска: USA
Год издания: 1976 (2012)
Издатель (лейбл): The Laser`s Edge
Номер по каталогу: LE1064
Страна: USA
Аудиокодек: FLAC (*.flac)
Тип рипа: image+.cue
Битрейт аудио: lossless
Продолжительность: 36:33
Источник (релизер): Собственный рип
Наличие сканов в содержимом раздачи: да
Треклист:
1. Mr. Softee
2. The Szuite
3. Between 7 &11
4. Transcendental Floss
5. New York City, 6 AM
 
Лог создания рипа
Exact Audio Copy V1.0 beta 3 from 29. August 2011
EAC extraction logfile from 15. December 2012, 19:44
Szobel, Hermann / Szobel
Used drive : Optiarc DVD RW AD-7243S Adapter: 0 ID: 1
Read mode : Secure
Utilize accurate stream : Yes
Defeat audio cache : Yes
Make use of C2 pointers : No
Read offset correction : 48
Overread into Lead-In and Lead-Out : No
Fill up missing offset samples with silence : Yes
Delete leading and trailing silent blocks : No
Null samples used in CRC calculations : Yes
Used interface : Native Win32 interface for Win NT & 2000
Used output format : User Defined Encoder
Selected bitrate : 768 kBit/s
Quality : High
Add ID3 tag : No
Command line compressor : C:\Program Files\Exact Audio Copy\FLAC\FLAC.EXE
Additional command line options : V -8 -T "Genre=%genre%" -T "Artist=%artist%" -T "Title=%title%" -T "Album=%albumtitle%" -T "Date=%year%" -T "Tracknumber=%tracknr%" -T "Comment=%comment%" %source%
TOC of the extracted CD
Track | Start | Length | Start sector | End sector
---------------------------------------------------------
1 | 0:00.00 | 6:35.52 | 0 | 29676
2 | 6:35.52 | 12:28.45 | 29677 | 85821
3 | 19:04.22 | 5:14.11 | 85822 | 109382
4 | 24:18.33 | 6:12.50 | 109383 | 137332
5 | 30:31.08 | 6:44.68 | 137333 | 167700
Range status and errors
Selected range
Filename C:\Documents and Settings\S\Мои документы\Torrent раздача\Szobel, Hermann - Szobel.wav
Peak level 100.0 %
Extraction speed 3.7 X
Range quality 99.9 %
Test CRC B389FB45
Copy CRC B389FB45
Copy OK
No errors occurred
AccurateRip summary
Track 1 accurately ripped (confidence 1) [7A4CEC2C] (AR v2)
Track 2 accurately ripped (confidence 1) [AD3C063E] (AR v2)
Track 3 accurately ripped (confidence 1) [864C2807] (AR v2)
Track 4 accurately ripped (confidence 1) [9718AB22] (AR v2)
Track 5 accurately ripped (confidence 1) [02342527] (AR v2)
All tracks accurately ripped
End of status report
==== Log checksum D049DAFEBDF182D0093C4DFC1609D4DAE06C3B47F16901757E9157C56D9F4115 ====
 
Содержание индексной карты (.CUE)
REM GENRE Jazz
REM DATE 1976
REM DISCID 3B08BC05
REM COMMENT "ExactAudioCopy v1.0b3"
PERFORMER "Szobel, Hermann"
TITLE "Szobel"
FILE "Szobel, Hermann - Szobel.flac" WAVE
TRACK 01 AUDIO
TITLE "Mr. Softee"
PERFORMER "Szobel, Hermann"
ISRC USAR11200122
INDEX 01 00:00:00
TRACK 02 AUDIO
TITLE "The Szuite"
PERFORMER "Szobel, Hermann"
ISRC USAR11200123
INDEX 00 06:31:46
INDEX 01 06:35:52
TRACK 03 AUDIO
TITLE "Between 7 & 11"
PERFORMER "Szobel, Hermann"
ISRC USAR11200124
INDEX 00 19:00:52
INDEX 01 19:04:22
TRACK 04 AUDIO
TITLE "Trancendental Floss"
PERFORMER "Szobel, Hermann"
ISRC USAR11200125
INDEX 00 24:14:55
INDEX 01 24:18:33
TRACK 05 AUDIO
TITLE "New York City, 6 AM"
PERFORMER "Szobel, Hermann"
ISRC USAR11200126
INDEX 00 30:27:11
INDEX 01 30:31:08
 
Состав
Hermann Szobel - piano
David Samuels - vibes, marimba, percussion
Michael Visceglia - bass
Bob Goldman - drums
Vadim Vyadro - sax, flute, clarinet
Any questions -> support@pro-jazz.com. По всем вопросам пишите -> support@pro-jazz.com
06:27
162
Нет комментариев. Ваш будет первым!