Вы используете незарегистрированную версию компонента "Вкладки"!

Поиск

(Free Jazz, Modern Jazz) Open Loose (Mark Helias, Tony Malaby, Tom Rainey) - Explicit - Live At The Sunset - 2011, FLAC (tracks+.cue), lossless

(Free Jazz, Modern Jazz) Open Loose (Mark Helias, Tony Malaby, Tom Rainey) - Explicit - Live At The Sunset - 2011, FLAC (tracks+.cue), lossless
Треклист:
Open Loose / Explicit - Live At The Sunset
Жанр: Free Jazz, Modern Jazz
Страна-производитель диска: France
Год издания: 2011
Издатель (лейбл): Disques Futura Et Marge
Номер по каталогу: Marge 50
Страна: USA
Аудиокодек: FLAC (*.flac)
Тип рипа: tracks+.cue
Битрейт аудио: lossless
Продолжительность: 1:11:40
Источник (релизер): CD
Наличие сканов в содержимом раздачи: да
Треклист:
1. The Archduke (2:53)
2. Story Line (7:30)
3. Explicit (8:03)
4. Moving Parts (7:06)
5. Line for Malavy (10:13)
6. Work It (7:54)
7. Waltz for Thursday Face (5:24)
8. Shorty One (11:28)
9. Kryptonite (11:06)
 
Лог создания рипа
Exact Audio Copy V1.0 beta 2 from 29. April 2011
EAC extraction logfile from 23. July 2012, 10:21
Open Loose / Explicit (Live at the Sunset)
Used drive : Optiarc DVD RW AD-7240S Adapter: 2 ID: 0
Read mode : Secure
Utilize accurate stream : Yes
Defeat audio cache : Yes
Make use of C2 pointers : No
Read offset correction : 48
Overread into Lead-In and Lead-Out : No
Fill up missing offset samples with silence : Yes
Delete leading and trailing silent blocks : No
Null samples used in CRC calculations : Yes
Used interface : Installed external ASPI interface
Gap handling : Appended to previous track
Used output format : User Defined Encoder
Selected bitrate : 128 kBit/s
Quality : High
Add ID3 tag : No
Command line compressor : C:\Program Files\Exact Audio Copy\FLAC\FLAC.EXE
Additional command line options : -8 -V -T "ARTIST=%artist%" -T "TITLE=%title%" -T "ALBUM=%albumtitle%" -T "DATE=%year%" -T "TRACKNUMBER=%tracknr%" -T "GENRE=%genre%" -T "COMMENT=%comment%" -T "BAND=%albuminterpret%" -T "COMPOSER=%composer%" %haslyrics%--ta
TOC of the extracted CD
Track | Start | Length | Start sector | End sector
---------------------------------------------------------
1 | 0:00.00 | 2:53.48 | 0 | 13022
2 | 2:53.48 | 7:30.51 | 13023 | 46823
3 | 10:24.24 | 8:03.12 | 46824 | 83060
4 | 18:27.36 | 7:06.45 | 83061 | 115055
5 | 25:34.06 | 10:13.02 | 115056 | 161032
6 | 35:47.08 | 7:54.19 | 161033 | 196601
7 | 43:41.27 | 5:24.42 | 196602 | 220943
8 | 49:05.69 | 11:28.45 | 220944 | 272588
9 | 60:34.39 | 11:06.21 | 272589 | 322559
Track 1
Filename C:\Open Loose (2011) - Explicit (Live at the Sunset)\01 The Archduke.wav
Pre-gap length 0:00:02.00
Peak level 93.7 %
Extraction speed 1.9 X
Track quality 99.9 %
Test CRC 1B0AD1DE
Copy CRC 1B0AD1DE
Track not present in AccurateRip database
Copy OK
Track 2
Filename C:\Open Loose (2011) - Explicit (Live at the Sunset)\02 Story Line.wav
Peak level 93.8 %
Extraction speed 2.8 X
Track quality 100.0 %
Test CRC 5555ABBE
Copy CRC 5555ABBE
Track not present in AccurateRip database
Copy OK
Track 3
Filename C:\Open Loose (2011) - Explicit (Live at the Sunset)\03 Explicit.wav
Pre-gap length 0:00:01.00
Peak level 93.7 %
Extraction speed 3.3 X
Track quality 100.0 %
Test CRC 64D99E6E
Copy CRC 64D99E6E
Track not present in AccurateRip database
Copy OK
Track 4
Filename C:\Open Loose (2011) - Explicit (Live at the Sunset)\04 Moving Parts.wav
Peak level 93.7 %
Extraction speed 3.4 X
Track quality 99.9 %
Test CRC C09D0FDE
Copy CRC C09D0FDE
Track not present in AccurateRip database
Copy OK
Track 5
Filename C:\Open Loose (2011) - Explicit (Live at the Sunset)\05 Line for Malavy.wav
Pre-gap length 0:00:01.00
Peak level 93.7 %
Extraction speed 4.1 X
Track quality 100.0 %
Test CRC CD072C57
Copy CRC CD072C57
Track not present in AccurateRip database
Copy OK
Track 6
Filename C:\Open Loose (2011) - Explicit (Live at the Sunset)\06 Work It.wav
Pre-gap length 0:00:01.00
Peak level 93.8 %
Extraction speed 4.4 X
Track quality 100.0 %
Test CRC F2AFC0C1
Copy CRC F2AFC0C1
Track not present in AccurateRip database
Copy OK
Track 7
Filename C:\Open Loose (2011) - Explicit (Live at the Sunset)\07 Waltz for Thursday Face.wav
Pre-gap length 0:00:00.38
Peak level 93.7 %
Extraction speed 4.5 X
Track quality 100.0 %
Test CRC 6C72E486
Copy CRC 6C72E486
Track not present in AccurateRip database
Copy OK
Track 8
Filename C:\Open Loose (2011) - Explicit (Live at the Sunset)\08 Shorty One.wav
Peak level 93.8 %
Extraction speed 5.1 X
Track quality 100.0 %
Test CRC 0D43FBFA
Copy CRC 0D43FBFA
Track not present in AccurateRip database
Copy OK
Track 9
Filename C:\Open Loose (2011) - Explicit (Live at the Sunset)\09 Kryptonite.wav
Pre-gap length 0:00:00.38
Peak level 98.5 %
Extraction speed 5.4 X
Track quality 100.0 %
Test CRC E38366B8
Copy CRC E38366B8
Track not present in AccurateRip database
Copy OK
None of the tracks are present in the AccurateRip database
No errors occurred
End of status report
==== Log checksum 6CDA33B14B99E2073307DB196079C6252C399A7E5B4A3A7805F87A64AEA7276D ====
 
Содержание индексной карты (.CUE)
REM GENRE Jazz
REM DATE 2011
REM DISCID 7C10CC09
REM COMMENT "ExactAudioCopy v1.0b2"
PERFORMER "Open Loose"
TITLE "Explicit (Live at the Sunset)"
FILE "01 The Archduke.wav" WAVE
TRACK 01 AUDIO
TITLE "The Archduke"
PERFORMER "Open Loose"
FLAGS DCP
INDEX 01 00:00:00
FILE "02 Story Line.wav" WAVE
TRACK 02 AUDIO
TITLE "Story Line"
PERFORMER "Open Loose"
FLAGS DCP
INDEX 01 00:00:00
TRACK 03 AUDIO
TITLE "Explicit"
PERFORMER "Open Loose"
FLAGS DCP
INDEX 00 07:29:51
FILE "03 Explicit.wav" WAVE
INDEX 01 00:00:00
FILE "04 Moving Parts.wav" WAVE
TRACK 04 AUDIO
TITLE "Moving Parts"
PERFORMER "Open Loose"
FLAGS DCP
INDEX 01 00:00:00
TRACK 05 AUDIO
TITLE "Line for Malavy"
PERFORMER "Open Loose"
FLAGS DCP
INDEX 00 07:05:45
FILE "05 Line for Malavy.wav" WAVE
INDEX 01 00:00:00
TRACK 06 AUDIO
TITLE "Work It"
PERFORMER "Open Loose"
FLAGS DCP
INDEX 00 10:12:02
FILE "06 Work It.wav" WAVE
INDEX 01 00:00:00
TRACK 07 AUDIO
TITLE "Waltz for Thursday Face"
PERFORMER "Open Loose"
FLAGS DCP
INDEX 00 07:53:56
FILE "07 Waltz for Thursday Face.wav" WAVE
INDEX 01 00:00:00
FILE "08 Shorty One.wav" WAVE
TRACK 08 AUDIO
TITLE "Shorty One"
PERFORMER "Open Loose"
FLAGS DCP
INDEX 01 00:00:00
TRACK 09 AUDIO
TITLE "Kryptonite"
PERFORMER "Open Loose"
FLAGS DCP
INDEX 00 11:28:07
FILE "09 Kryptonite.wav" WAVE
INDEX 01 00:00:00
 
Доп. информация
Recorded on April 11th 2011 at the Sunset in Paris
 
Об альбоме (сборнике)
The group here is definitely open and loose, but never too free – working with some really sensitive interplay between the tenor of Tony Malaby, bass of Mark Helias, and drums of Tom Rainey – a trio who are free at points, yet also have a nice sense of structure too – really balancing different modes within the space of a single song! Helias has a really strong approach to his instrument – and his basslines, although sometimes spare, have a deep-rooted quality that really holds the whole thing together – and there's also possibly an intuitive link, given that he also wrote all the tunes on the set. Titles include "Waltz For Thursday Face", "The Archduke", "Story Line", "Explicit", "Moving Parts", and "Shorty One". ~ dustygroove.com
 
Состав
Mark Helias - bass
Tony Malaby - tenor saxophone
Tom Rainey - drums
Any questions -> support@pro-jazz.com. По всем вопросам пишите -> support@pro-jazz.com
06:27
238
Нет комментариев. Ваш будет первым!