Вы используете незарегистрированную версию компонента "Вкладки"!

Поиск

(Free Jazz, Psychedelic Rock) Fire! (Johan Berthling, Andreas Werliin, Mats Gustafsson) - (Without Noticing) - 2013, FLAC (tracks+.cue), lossless

(Free Jazz, Psychedelic Rock) Fire! (Johan Berthling, Andreas Werliin, Mats Gustafsson) - (Without Noticing) - 2013, FLAC (tracks+.cue), lossless
Треклист:
Fire!(Without Noticing) Жанр: Free Jazz, Psychedelic Rock
Год издания: 2013
Издатель (лейбл): Rune Grammofon
Номер по каталогу: RCD 2146
Страна: Norway
Аудиокодек: FLAC (*.flac)
Тип рипа: tracks+.cue
Битрейт аудио: lossless
Продолжительность: 42:01
Источник (релизер): CD (спасибо 6060842)
Наличие сканов в содержимом раздачи: нет
Треклист:
01. Standing on a Rabbit (Without Noticing) 2:13
02. Would I Whip (Without Noticing) 5:58
03. Your Silhouette on Each (Without Noticing) 6:33
04. At Least on Your Door (Without Noticing) 6:39
05. Tonight. More. Much More. (Without Noticing) 7:36
06. Molting Slowly (Without Noticing) 10:00
07. I Mostly Stare (Without Noticing) 3:03
 
Лог создания рипа
X Lossless Decoder version 20130720 (144.0)
XLD extraction logfile from 2013-09-04 20:46:30 +0400
Fire! / (Without Noticing)
Used drive : HL-DT-ST DVDRW GX30N (revision RP09)
Media type : Pressed CD
Ripper mode : XLD Secure Ripper
Disable audio cache : OK for the drive with a cache less than 1375KiB
Make use of C2 pointers : NO
Read offset correction : 6
Max retry count : 100
Gap status : Analyzed, Appended (except HTOA)
TOC of the extracted CD
Track | Start | Length | Start sector | End sector
---------------------------------------------------------
1 | 00:00:00 | 02:12:55 | 0 | 9954
2 | 02:12:55 | 05:57:50 | 9955 | 36779
3 | 08:10:30 | 06:33:13 | 36780 | 66267
4 | 14:43:43 | 06:39:17 | 66268 | 96209
5 | 21:22:60 | 07:35:38 | 96210 | 130372
6 | 28:58:23 | 10:00:05 | 130373 | 175377
7 | 38:58:28 | 03:03:00 | 175378 | 189102
AccurateRip Summary
Disc not found in AccurateRip DB.
All Tracks
Album gain : -7.64 dB
Peak : 0.988739
Statistics
Read error : 0
Jitter error (maybe fixed) : 0
Retry sector count : 0
Damaged sector count : 0
Track 01
Filename : /Users/anch/Music/FLAC/Fire, - 2013 - (Without Noticing) [MP3 320]/01 - Standing on a Rabbit (Without Noticing).mp3
/Users/anch/Music/FLAC/Fire, - 2013 - (Without Noticing) [MP3 V0]/01 - Standing on a Rabbit (Without Noticing).mp3
/Users/anch/Music/FLAC/Fire, - 2013 - (Without Noticing) [FLAC]/01 - Standing on a Rabbit (Without Noticing).flac
Pre-gap length : 00:02:00
Track gain : -5.87 dB
Peak : 0.896759
CRC32 hash (test run) : F4C99099
CRC32 hash : F4C99099
CRC32 hash (skip zero) : D14FCF03
AccurateRip v1 signature : CA7B49FD
AccurateRip v2 signature : 8B59981C
->Track not present in AccurateRip database.
Statistics
Read error : 0
Jitter error (maybe fixed) : 0
Retry sector count : 0
Damaged sector count : 0
Track 02
Filename : /Users/anch/Music/FLAC/Fire, - 2013 - (Without Noticing) [MP3 320]/02 - Would I Whip (Without Noticing).mp3
/Users/anch/Music/FLAC/Fire, - 2013 - (Without Noticing) [MP3 V0]/02 - Would I Whip (Without Noticing).mp3
/Users/anch/Music/FLAC/Fire, - 2013 - (Without Noticing) [FLAC]/02 - Would I Whip (Without Noticing).flac
Track gain : -8.77 dB
Peak : 0.988678
CRC32 hash (test run) : 74370EE7
CRC32 hash : 74370EE7
CRC32 hash (skip zero) : B1794629
AccurateRip v1 signature : 1068F4A1
AccurateRip v2 signature : 74CC4CD3
->Track not present in AccurateRip database.
Statistics
Read error : 0
Jitter error (maybe fixed) : 0
Retry sector count : 0
Damaged sector count : 0
Track 03
Filename : /Users/anch/Music/FLAC/Fire, - 2013 - (Without Noticing) [MP3 320]/03 - Your Silhouette on Each (Without Noticing).mp3
/Users/anch/Music/FLAC/Fire, - 2013 - (Without Noticing) [MP3 V0]/03 - Your Silhouette on Each (Without Noticing).mp3
/Users/anch/Music/FLAC/Fire, - 2013 - (Without Noticing) [FLAC]/03 - Your Silhouette on Each (Without Noticing).flac
Track gain : -7.73 dB
Peak : 0.988678
CRC32 hash (test run) : 48FC54C0
CRC32 hash : 48FC54C0
CRC32 hash (skip zero) : F1635006
AccurateRip v1 signature : BEF5D4BC
AccurateRip v2 signature : CA4F294D
->Track not present in AccurateRip database.
Statistics
Read error : 0
Jitter error (maybe fixed) : 0
Retry sector count : 0
Damaged sector count : 0
Track 04
Filename : /Users/anch/Music/FLAC/Fire, - 2013 - (Without Noticing) [MP3 320]/04 - At Least on Your Door (Without Noticing).mp3
/Users/anch/Music/FLAC/Fire, - 2013 - (Without Noticing) [MP3 V0]/04 - At Least on Your Door (Without Noticing).mp3
/Users/anch/Music/FLAC/Fire, - 2013 - (Without Noticing) [FLAC]/04 - At Least on Your Door (Without Noticing).flac
Track gain : -7.55 dB
Peak : 0.988708
CRC32 hash (test run) : 3F482083
CRC32 hash : 3F482083
CRC32 hash (skip zero) : 94BFC8CC
AccurateRip v1 signature : 50EB6A72
AccurateRip v2 signature : B02674AA
->Track not present in AccurateRip database.
Statistics
Read error : 0
Jitter error (maybe fixed) : 0
Retry sector count : 0
Damaged sector count : 0
Track 05
Filename : /Users/anch/Music/FLAC/Fire, - 2013 - (Without Noticing) [MP3 320]/05 - Tonight. More. Much More. (Without Noticing).mp3
/Users/anch/Music/FLAC/Fire, - 2013 - (Without Noticing) [MP3 V0]/05 - Tonight. More. Much More. (Without Noticing).mp3
/Users/anch/Music/FLAC/Fire, - 2013 - (Without Noticing) [FLAC]/05 - Tonight. More. Much More. (Without Noticing).flac
Track gain : -6.55 dB
Peak : 0.988617
CRC32 hash (test run) : F4AA474A
CRC32 hash : F4AA474A
CRC32 hash (skip zero) : 72C7FD6A
AccurateRip v1 signature : C7843F99
AccurateRip v2 signature : 1F8E21DD
->Track not present in AccurateRip database.
Statistics
Read error : 0
Jitter error (maybe fixed) : 0
Retry sector count : 0
Damaged sector count : 0
Track 06
Filename : /Users/anch/Music/FLAC/Fire, - 2013 - (Without Noticing) [MP3 320]/06 - Molting Slowly (Without Noticing).mp3
/Users/anch/Music/FLAC/Fire, - 2013 - (Without Noticing) [MP3 V0]/06 - Molting Slowly (Without Noticing).mp3
/Users/anch/Music/FLAC/Fire, - 2013 - (Without Noticing) [FLAC]/06 - Molting Slowly (Without Noticing).flac
Track gain : -7.62 dB
Peak : 0.988739
CRC32 hash (test run) : 0F7886C3
CRC32 hash : 0F7886C3
CRC32 hash (skip zero) : 30440E67
AccurateRip v1 signature : E9962B7F
AccurateRip v2 signature : 38C130ED
->Track not present in AccurateRip database.
Statistics
Read error : 0
Jitter error (maybe fixed) : 0
Retry sector count : 0
Damaged sector count : 0
Track 07
Filename : /Users/anch/Music/FLAC/Fire, - 2013 - (Without Noticing) [MP3 320]/07 - I Mostly Stare (Without Noticing).mp3
/Users/anch/Music/FLAC/Fire, - 2013 - (Without Noticing) [MP3 V0]/07 - I Mostly Stare (Without Noticing).mp3
/Users/anch/Music/FLAC/Fire, - 2013 - (Without Noticing) [FLAC]/07 - I Mostly Stare (Without Noticing).flac
Track gain : -7.18 dB
Peak : 0.988586
CRC32 hash (test run) : 4B693D0C
CRC32 hash : 4B693D0C
CRC32 hash (skip zero) : C683B5DE
AccurateRip v1 signature : 3B0A2F97
AccurateRip v2 signature : 011D18B0
->Track not present in AccurateRip database.
Statistics
Read error : 0
Jitter error (maybe fixed) : 0
Retry sector count : 0
Damaged sector count : 0
No errors occurred
End of status report
 
Содержание индексной карты (.CUE)
TITLE "(Without Noticing)"
PERFORMER "Fire!"
REM GENRE "Free Jazz / Krautrock"
REM DATE "2013"
REM DISCNUMBER 1
REM TOTALDISCS 1
REM DISCID 5209D907
REM REPLAYGAIN_ALBUM_GAIN -7.64 dB
REM REPLAYGAIN_ALBUM_PEAK 0.988739
FILE "01 - Standing on a Rabbit (Without Noticing).flac" FLAC
TRACK 01 AUDIO
TITLE "Standing on a Rabbit (Without Noticing)"
PERFORMER "Fire!"
SONGWRITER "Andreas Werliin, Johan Berthling, Mats Gustafsson"
ISRC NOFGR1346010
REM REPLAYGAIN_TRACK_GAIN -5.87 dB
REM REPLAYGAIN_TRACK_PEAK 0.896759
INDEX 01 00:00:00
FILE "02 - Would I Whip (Without Noticing).flac" FLAC
TRACK 02 AUDIO
TITLE "Would I Whip (Without Noticing)"
PERFORMER "Fire!"
SONGWRITER "Andreas Werliin, Johan Berthling, Mats Gustafsson"
ISRC NOFGR1346020
REM REPLAYGAIN_TRACK_GAIN -8.77 dB
REM REPLAYGAIN_TRACK_PEAK 0.988678
INDEX 01 00:00:00
FILE "03 - Your Silhouette on Each (Without Noticing).flac" FLAC
TRACK 03 AUDIO
TITLE "Your Silhouette on Each (Without Noticing)"
PERFORMER "Fire!"
SONGWRITER "Andreas Werliin, Johan Berthling, Mats Gustafsson"
ISRC NOFGR1346030
REM REPLAYGAIN_TRACK_GAIN -7.73 dB
REM REPLAYGAIN_TRACK_PEAK 0.988678
INDEX 01 00:00:00
FILE "04 - At Least on Your Door (Without Noticing).flac" FLAC
TRACK 04 AUDIO
TITLE "At Least on Your Door (Without Noticing)"
PERFORMER "Fire!"
SONGWRITER "Andreas Werliin, Johan Berthling, Mats Gustafsson"
ISRC NOFGR1346040
REM REPLAYGAIN_TRACK_GAIN -7.55 dB
REM REPLAYGAIN_TRACK_PEAK 0.988708
INDEX 01 00:00:00
FILE "05 - Tonight. More. Much More. (Without Noticing).flac" FLAC
TRACK 05 AUDIO
TITLE "Tonight. More. Much More. (Without Noticing)"
PERFORMER "Fire!"
SONGWRITER "Andreas Werliin, Johan Berthling, Mats Gustafsson"
ISRC NOFGR1346050
REM REPLAYGAIN_TRACK_GAIN -6.55 dB
REM REPLAYGAIN_TRACK_PEAK 0.988617
INDEX 01 00:00:00
FILE "06 - Molting Slowly (Without Noticing).flac" FLAC
TRACK 06 AUDIO
TITLE "Molting Slowly (Without Noticing)"
PERFORMER "Fire!"
SONGWRITER "Andreas Werliin, Johan Berthling, Mats Gustafsson"
ISRC NOFGR1346060
REM REPLAYGAIN_TRACK_GAIN -7.62 dB
REM REPLAYGAIN_TRACK_PEAK 0.988739
INDEX 01 00:00:00
FILE "07 - I Mostly Stare (Without Noticing).flac" FLAC
TRACK 07 AUDIO
TITLE "I Mostly Stare (Without Noticing)"
PERFORMER "Fire!"
SONGWRITER "Andreas Werliin, Johan Berthling, Mats Gustafsson"
ISRC NOFGR1346070
REM REPLAYGAIN_TRACK_GAIN -7.18 dB
REM REPLAYGAIN_TRACK_PEAK 0.988586
INDEX 01 00:00:00
 
Лог проверки качества
-----------------------
DON'T MODIFY THIS FILE
-----------------------
PERFORMER: auCDtect Task Manager, ver. 1.6.0 RC1 build 1.6.0.1
Copyright (c) 2008-2010 y-soft. All rights reserved
http://y-soft.org
ANALYZER: auCDtect: CD records authenticity detector, version 0.8.2
Copyright (c) 2004 Oleg Berngardt. All rights reserved.
Copyright (c) 2004 Alexander Djourik. All rights reserved.
FILE: 07 - I Mostly Stare (Without Noticing).flac
Size: 18680434 Hash: 983AB6F3C27FA0B434437E79E1280288 Accuracy: -m0
Conclusion: CDDA 100%
Signature: 082E9BDED5C451A75660D07A842748E8497EDB7F
FILE: 06 - Molting Slowly (Without Noticing).flac
Size: 68756793 Hash: F94B55E2DDFDBB1519BD976118FD67AE Accuracy: -m0
Conclusion: CDDA 100%
Signature: E9F165630E41462B412EDDD7C05C9915D2AB6C86
FILE: 05 - Tonight. More. Much More. (Without Noticing).flac
Size: 47706156 Hash: 590E455AC254AE4140E67C66E70D1423 Accuracy: -m0
Conclusion: CDDA 100%
Signature: 74F9BD6389F70314DED17C0EC8FC558F02876393
FILE: 04 - At Least on Your Door (Without Noticing).flac
Size: 41109283 Hash: 310F6A9BE878413FDCB50160868AF655 Accuracy: -m0
Conclusion: CDDA 100%
Signature: 9E7AB397AAA2A6087CCAAF1F38C7428454935E3D
FILE: 03 - Your Silhouette on Each (Without Noticing).flac
Size: 42282642 Hash: 57CA1AF08BE18C5AF8B188C7A1D89ADB Accuracy: -m0
Conclusion: CDDA 100%
Signature: 502B348ECE77F18579A3D01639A086CA8BE350FA
FILE: 02 - Would I Whip (Without Noticing).flac
Size: 45077891 Hash: 6795D96650F802AD058BEBDA4C031B9C Accuracy: -m0
Conclusion: CDDA 100%
Signature: 577CE8A61507D1AF1176605BB7441251E8E9CA37
FILE: 01 - Standing on a Rabbit (Without Noticing).flac
Size: 12112945 Hash: 5B84AB88895666EEADBDDF5EC99A0ABF Accuracy: -m0
Conclusion: CDDA 100%
Signature: 2FAFAC15AF8C53B36391128D7AAA428034C2A1F7
Доп. информация: Recorded and mixed at Summa, Stockholm, Winter 2012-2013
 
Состав
Johan Berthling - Bass, Piano
Andreas Werliin - Drums
Mats Gustafsson - Tenor Saxophone, Baritone Saxophone, Organ, Electric Piano [Fender Rhodes], Electronics
По всем вопросам пишите личное сообщение пользователю M0p94ok.
19:09
177
Нет комментариев. Ваш будет первым!