Вы используете незарегистрированную версию компонента "Вкладки"!

Поиск

(Free Improvisation, Plainisphare) Leon Francioli - Acoustic Ladyland - 1990, FLAC (tracks+.cue), lossless

(Free Improvisation, Plainisphare) Leon Francioli - Acoustic Ladyland - 1990, FLAC (tracks+.cue), lossless
Треклист:
Léon Francioli / Acoustic Ladyland
Жанр: Free Improvisation, Plainisphare
Страна-производитель диска: Switzerland
Год издания: 1990
Издатель (лейбл): Plainisphare
Номер по каталогу: PL 1267-52 CD
Аудиокодек: FLAC (*.flac)
Тип рипа: tracks+.cue
Битрейт аудио: lossless
Продолжительность: 39:38
Источник (релизер): Max Monteiro
Наличие сканов в содержимом раздачи: нет
Треклист:
1. Fuite baroque 13:26
2. Le Zoopte 8:51
3. Acoustic Ladyland 12:01
4. Sans blâââgue 5:20
Toutes les compositions sont de Léon Francioli.
Enregistrement réalisé au Studio Ear Force (Fribourg, Suisse) en février 1990.
Léon Francioli – contrebasse solo
 
Лог создания рипа
Exact Audio Copy V1.0 beta 3 from 29. August 2011
EAC extraction logfile from 10. October 2013, 10:23
Léon Francioli / Acoustic Ladyland
Used drive : SlimtypeeNAU508 5 Adapter: 1 ID: 0
Read mode : Secure
Utilize accurate stream : Yes
Defeat audio cache : Yes
Make use of C2 pointers : No
Read offset correction : 6
Overread into Lead-In and Lead-Out : No
Fill up missing offset samples with silence : Yes
Delete leading and trailing silent blocks : No
Null samples used in CRC calculations : Yes
Used interface : Native Win32 interface for Win NT & 2000
Gap handling : Appended to previous track
Used output format : User Defined Encoder
Selected bitrate : 768 kBit/s
Quality : High
Add ID3 tag : No
Command line compressor : C:\Program Files (x86)\Exact Audio Copy\Flac\flac.exe
Additional command line options : -8 -V -T "ARTIST=%artist%" -T "TITLE=%title%" -T "ALBUM=%albumtitle%" -T "DATE=%year%" -T "TRACKNUMBER=%tracknr%" -T "GENRE=%genre%" -T "PERFORMER=%albuminterpret%" -T "COMPOSER=%composer%" %haslyrics%--tag-from-file=LYRICS="%lyricsfile%"%haslyrics% -T "ALBUMARTIST=%albumartist%" -T "DISCNUMBER=%cdnumber%" -T "TOTALDISCS=%totalcds%" -T "TOTALTRACKS=%numtracks%" -T "COMMENT=%comment%" %source% -o %dest%
TOC of the extracted CD
Track | Start | Length | Start sector | End sector
---------------------------------------------------------
1 | 0:00.00 | 13:26.00 | 0 | 60449
2 | 13:26.00 | 8:50.62 | 60450 | 100261
3 | 22:16.62 | 12:01.13 | 100262 | 154349
4 | 34:18.00 | 5:20.00 | 154350 | 178349
Track 1
Filename C:\EAC rips\01 - Fuite baroque.wav
Pre-gap length 0:00:02.00
Peak level 79.5 %
Extraction speed 2.3 X
Track quality 99.9 %
Test CRC 962B9B22
Copy CRC 962B9B22
Track not present in AccurateRip database
Copy OK
Track 2
Filename C:\EAC rips\02 - Le Zoopte.wav
Pre-gap length 0:00:00.50
Peak level 49.6 %
Extraction speed 3.1 X
Track quality 100.0 %
Test CRC DB12C3E2
Copy CRC DB12C3E2
Track not present in AccurateRip database
Copy OK
Track 3
Filename C:\EAC rips\03 - Acoustic Ladyland.wav
Peak level 91.4 %
Extraction speed 3.6 X
Track quality 100.0 %
Test CRC 686F741E
Copy CRC 686F741E
Track not present in AccurateRip database
Copy OK
Track 4
Filename C:\EAC rips\04 - Sans blâââgue.wav
Pre-gap length 0:00:01.35
Peak level 32.4 %
Extraction speed 3.7 X
Track quality 100.0 %
Test CRC A8F53CE7
Copy CRC A8F53CE7
Track not present in AccurateRip database
Copy OK
None of the tracks are present in the AccurateRip database
No errors occurred
End of status report
---- CUETools DB Plugin V2.1.4
[CTDB TOCID: cjQAzN3Ot50SkKyT6JcOFgx3qns-] disk not present in database
Submit result: cjQAzN3Ot50SkKyT6JcOFgx3qns- has been uploaded
==== Log checksum 5DEF0B9B8B30B3614A077C7488402CD5F54A28406CAC55A0CB44D6952BF77EEF ====
 
Содержание индексной карты (.CUE)
REM GENRE Jazz
REM DATE 1990
REM DISCID 29094A04
REM COMMENT "ExactAudioCopy v1.0b3"
PERFORMER "Léon Francioli"
TITLE "Acoustic Ladyland"
FILE "01 - Fuite baroque.wav" WAVE
TRACK 01 AUDIO
TITLE "Fuite baroque"
PERFORMER "Léon Francioli"
INDEX 01 00:00:00
TRACK 02 AUDIO
TITLE "Le Zoopte"
PERFORMER "Léon Francioli"
INDEX 00 13:25:25
FILE "02 - Le Zoopte.wav" WAVE
INDEX 01 00:00:00
FILE "03 - Acoustic Ladyland.wav" WAVE
TRACK 03 AUDIO
TITLE "Acoustic Ladyland"
PERFORMER "Léon Francioli"
INDEX 01 00:00:00
TRACK 04 AUDIO
TITLE "Sans blâââgue"
PERFORMER "Léon Francioli"
INDEX 00 11:59:53
FILE "04 - Sans blâââgue.wav" WAVE
INDEX 01 00:00:00
По всем вопросам пишите личное сообщение пользователю M0p94ok.
19:08
154
Нет комментариев. Ваш будет первым!