Вы используете незарегистрированную версию компонента "Вкладки"!

Поиск

(Avant-Garde Jazz, Free Improvisation, Piano) Matthew Shipp - Piano Sutras - 2013, FLAC (tracks+.cue), lossless

(Avant-Garde Jazz, Free Improvisation, Piano) Matthew Shipp - Piano Sutras - 2013, FLAC (tracks+.cue), lossless
Треклист:
Matthew ShippPiano Sutras Жанр: Avant-Garde Jazz, Free Improvisation, Piano
Год издания: 2013
Издатель (лейбл): Thirsty Ear
Номер по каталогу: THI 57207.2
Аудиокодек: FLAC (*.flac)
Тип рипа: tracks+.cue
Битрейт аудио: lossless
Продолжительность: 52:15
Источник (релизер): CD (спасибо box)
Наличие сканов в содержимом раздачи: нет
Треклист:
01. Piano Sutras 4:46
02. Cosmic Shuffle 5:55
03. Surface To Curve 3:48
04. Blue to a Point 4:50
05. Cosmic Dust 2:57
06. Giant Steps 1:11
07. Uncreated Light 3:48
08. Fragment of a Whole 4:34
09. Space Bubble 4:32
10. Nefertiti 2:18
11. Angelic Brain Cell 5:49
12. Silent Cube 3:45
13. The Indivisible 3:58
 
Лог создания рипа
Exact Audio Copy V1.0 beta 3 from 29. August 2011
EAC extraction logfile from 30. September 2013, 15:39
Matthew Shipp / Piano Sutras
Used drive : PLDS DVD+-RW DH-16ABS Adapter: 1 ID: 0
Read mode : Secure
Utilize accurate stream : Yes
Defeat audio cache : Yes
Make use of C2 pointers : No
Read offset correction : 6
Overread into Lead-In and Lead-Out : No
Fill up missing offset samples with silence : Yes
Delete leading and trailing silent blocks : No
Null samples used in CRC calculations : Yes
Used interface : Native Win32 interface for Win NT & 2000
Gap handling : Appended to previous track
Used output format : User Defined Encoder
Selected bitrate : 1024 kBit/s
Quality : High
Add ID3 tag : No
Command line compressor : C:\Program Files\Exact Audio Copy\Flac\flac.exe
Additional command line options : -8 -V -T "ARTIST=%artist%" -T "TITLE=%title%" -T "ALBUM=%albumtitle%" -T "DATE=%year%" -T "TRACKNUMBER=%tracknr%" -T "GENRE=%genre%" -T "PERFORMER=%albuminterpret%" -T "COMPOSER=%composer%" %haslyrics%--tag-from-file=LYRICS="%lyricsfile%"%haslyrics% -T "ALBUMARTIST=%albumartist%" -T "DISCNUMBER=%cdnumber%" -T "TOTALDISCS=%totalcds%" -T "TOTALTRACKS=%numtracks%" -T "COMMENT=%comment%" %source% -o %dest%
TOC of the extracted CD
Track | Start | Length | Start sector | End sector
---------------------------------------------------------
1 | 0:00.00 | 4:45.39 | 0 | 21413
2 | 4:45.39 | 5:54.46 | 21414 | 48009
3 | 10:40.10 | 3:48.30 | 48010 | 65139
4 | 14:28.40 | 4:49.70 | 65140 | 86884
5 | 19:18.35 | 2:57.34 | 86885 | 100193
6 | 22:15.69 | 1:10.66 | 100194 | 105509
7 | 23:26.60 | 3:47.62 | 105510 | 122596
8 | 27:14.47 | 4:33.67 | 122597 | 143138
9 | 31:48.39 | 4:31.53 | 143139 | 163516
10 | 36:20.17 | 2:18.20 | 163517 | 173886
11 | 38:38.37 | 5:49.29 | 173887 | 200090
12 | 44:27.66 | 3:44.49 | 200091 | 216939
13 | 48:12.40 | 3:57.73 | 216940 | 234787
Track 1
Filename C:\Matthew Shipp - Piano Sutras (2013) FLAC\01 - Piano Sutras.wav
Pre-gap length 0:00:02.00
Peak level 100.0 %
Extraction speed 2.8 X
Track quality 99.9 %
Test CRC C921AC2C
Copy CRC C921AC2C
Track not present in AccurateRip database
Copy OK
Track 2
Filename C:\Matthew Shipp - Piano Sutras (2013) FLAC\02 - Cosmic Shuffle.wav
Pre-gap length 0:00:02.00
Peak level 100.0 %
Extraction speed 4.0 X
Track quality 100.0 %
Test CRC 09CF06AA
Copy CRC 09CF06AA
Track not present in AccurateRip database
Copy OK
Track 3
Filename C:\Matthew Shipp - Piano Sutras (2013) FLAC\03 - Surface to Curve.wav
Pre-gap length 0:00:02.00
Peak level 99.9 %
Extraction speed 3.3 X
Track quality 99.9 %
Test CRC 4EC00C35
Copy CRC 4EC00C35
Track not present in AccurateRip database
Copy OK
Track 4
Filename C:\Matthew Shipp - Piano Sutras (2013) FLAC\04 - Blue to a Point.wav
Pre-gap length 0:00:02.00
Peak level 100.0 %
Extraction speed 4.6 X
Track quality 100.0 %
Test CRC E68A1AAD
Copy CRC E68A1AAD
Track not present in AccurateRip database
Copy OK
Track 5
Filename C:\Matthew Shipp - Piano Sutras (2013) FLAC\05 - Cosmic Dust.wav
Pre-gap length 0:00:02.00
Peak level 100.0 %
Extraction speed 4.5 X
Track quality 100.0 %
Test CRC D51F9C2F
Copy CRC D51F9C2F
Track not present in AccurateRip database
Copy OK
Track 6
Filename C:\Matthew Shipp - Piano Sutras (2013) FLAC\06 - Giant Steps.wav
Pre-gap length 0:00:02.00
Peak level 57.4 %
Extraction speed 3.7 X
Track quality 100.0 %
Test CRC 9D7B0D4B
Copy CRC 9D7B0D4B
Track not present in AccurateRip database
Copy OK
Track 7
Filename C:\Matthew Shipp - Piano Sutras (2013) FLAC\07 - Uncreated Light.wav
Pre-gap length 0:00:02.00
Peak level 100.0 %
Extraction speed 5.0 X
Track quality 100.0 %
Test CRC 028E6209
Copy CRC 028E6209
Track not present in AccurateRip database
Copy OK
Track 8
Filename C:\Matthew Shipp - Piano Sutras (2013) FLAC\08 - Fragment of a Whole.wav
Pre-gap length 0:00:02.00
Peak level 100.0 %
Extraction speed 4.4 X
Track quality 99.9 %
Test CRC C1D15116
Copy CRC C1D15116
Track not present in AccurateRip database
Copy OK
Track 9
Filename C:\Matthew Shipp - Piano Sutras (2013) FLAC\09 - Space Bubble.wav
Pre-gap length 0:00:02.00
Peak level 83.6 %
Extraction speed 5.6 X
Track quality 100.0 %
Test CRC BF82F243
Copy CRC BF82F243
Track not present in AccurateRip database
Copy OK
Track 10
Filename C:\Matthew Shipp - Piano Sutras (2013) FLAC\10 - Nefertiti.wav
Pre-gap length 0:00:02.00
Peak level 99.9 %
Extraction speed 5.2 X
Track quality 100.0 %
Test CRC 55291A6A
Copy CRC 55291A6A
Track not present in AccurateRip database
Copy OK
Track 11
Filename C:\Matthew Shipp - Piano Sutras (2013) FLAC\11 - Angelic Brain Cell.wav
Pre-gap length 0:00:01.98
Peak level 95.6 %
Extraction speed 6.2 X
Track quality 100.0 %
Test CRC 3803D7C0
Copy CRC 3803D7C0
Track not present in AccurateRip database
Copy OK
Track 12
Filename C:\Matthew Shipp - Piano Sutras (2013) FLAC\12 - Silent Cube.wav
Pre-gap length 0:00:02.00
Peak level 90.9 %
Extraction speed 6.1 X
Track quality 100.0 %
Test CRC 432CAD62
Copy CRC 432CAD62
Track not present in AccurateRip database
Copy OK
Track 13
Filename C:\Matthew Shipp - Piano Sutras (2013) FLAC\13 - The Indivisible.wav
Pre-gap length 0:00:02.00
Peak level 100.0 %
Extraction speed 6.3 X
Track quality 100.0 %
Test CRC 444F9C39
Copy CRC 444F9C39
Track not present in AccurateRip database
Copy OK
None of the tracks are present in the AccurateRip database
No errors occurred
End of status report
---- CUETools DB Plugin V2.1.3
[CTDB TOCID: .1NWp6wYdEGwUABKVQNMb_AGeR8-] disk not present in database, Submit result: .1NWp6wYdEGwUABKVQNMb_AGeR8- has been uploaded
==== Log checksum 01459BFEFFEAB656A722C7FDD3A27E1FDD770B40DA2CD9ACEC9D963EDDE48FE5 ====
 
Содержание индексной карты (.CUE)
REM GENRE Jazz
REM DATE 2013
REM DISCID AE0C3A0D
REM COMMENT "ExactAudioCopy v1.0b3"
PERFORMER "Matthew Shipp"
TITLE "Piano Sutras"
FILE "01 - Piano Sutras.wav" WAVE
TRACK 01 AUDIO
TITLE "Piano Sutras"
PERFORMER "Matthew Shipp"
FLAGS DCP
INDEX 01 00:00:00
TRACK 02 AUDIO
TITLE "Cosmic Shuffle"
PERFORMER "Matthew Shipp"
FLAGS DCP
INDEX 00 04:43:39
FILE "02 - Cosmic Shuffle.wav" WAVE
INDEX 01 00:00:00
TRACK 03 AUDIO
TITLE "Surface to Curve"
PERFORMER "Matthew Shipp"
FLAGS DCP
INDEX 00 05:52:46
FILE "03 - Surface to Curve.wav" WAVE
INDEX 01 00:00:00
TRACK 04 AUDIO
TITLE "Blue to a Point"
PERFORMER "Matthew Shipp"
FLAGS DCP
INDEX 00 03:46:30
FILE "04 - Blue to a Point.wav" WAVE
INDEX 01 00:00:00
TRACK 05 AUDIO
TITLE "Cosmic Dust"
PERFORMER "Matthew Shipp"
FLAGS DCP
INDEX 00 04:47:70
FILE "05 - Cosmic Dust.wav" WAVE
INDEX 01 00:00:00
TRACK 06 AUDIO
TITLE "Giant Steps"
PERFORMER "Matthew Shipp"
FLAGS DCP
INDEX 00 02:55:34
FILE "06 - Giant Steps.wav" WAVE
INDEX 01 00:00:00
TRACK 07 AUDIO
TITLE "Uncreated Light"
PERFORMER "Matthew Shipp"
FLAGS DCP
INDEX 00 01:08:66
FILE "07 - Uncreated Light.wav" WAVE
INDEX 01 00:00:00
TRACK 08 AUDIO
TITLE "Fragment of a Whole"
PERFORMER "Matthew Shipp"
FLAGS DCP
INDEX 00 03:45:62
FILE "08 - Fragment of a Whole.wav" WAVE
INDEX 01 00:00:00
TRACK 09 AUDIO
TITLE "Space Bubble"
PERFORMER "Matthew Shipp"
FLAGS DCP
INDEX 00 04:31:67
FILE "09 - Space Bubble.wav" WAVE
INDEX 01 00:00:00
TRACK 10 AUDIO
TITLE "Nefertiti"
PERFORMER "Matthew Shipp"
FLAGS DCP
INDEX 00 04:29:53
FILE "10 - Nefertiti.wav" WAVE
INDEX 01 00:00:00
TRACK 11 AUDIO
TITLE "Angelic Brain Cell"
PERFORMER "Matthew Shipp"
FLAGS DCP
INDEX 00 02:16:21
FILE "11 - Angelic Brain Cell.wav" WAVE
INDEX 01 00:00:00
TRACK 12 AUDIO
TITLE "Silent Cube"
PERFORMER "Matthew Shipp"
FLAGS DCP
INDEX 00 05:47:29
FILE "12 - Silent Cube.wav" WAVE
INDEX 01 00:00:00
TRACK 13 AUDIO
TITLE "The Indivisible"
PERFORMER "Matthew Shipp"
FLAGS DCP
INDEX 00 03:42:49
FILE "13 - The Indivisible.wav" WAVE
INDEX 01 00:00:00
 
Лог проверки качества
-----------------------
DON'T MODIFY THIS FILE
-----------------------
PERFORMER: auCDtect Task Manager, ver. 1.6.0 RC1 build 1.6.0.1
Copyright (c) 2008-2010 y-soft. All rights reserved
http://y-soft.org
ANALYZER: auCDtect: CD records authenticity detector, version 0.8.2
Copyright (c) 2004 Oleg Berngardt. All rights reserved.
Copyright (c) 2004 Alexander Djourik. All rights reserved.
FILE: 13 - The Indivisible.flac
Size: 17390172 Hash: 85BE18CA39D17AB76E47792EA8515F71 Accuracy: -m0
Conclusion: CDDA 76%
Signature: 5E4D8538449AD4141418049AE5CCD43ACDAA506A
FILE: 12 - Silent Cube.flac
Size: 13585587 Hash: F152C8AF947764712D584005C7ECCF89 Accuracy: -m0
Conclusion: CDDA 100%
Signature: 222B1F18CBB195CBE7534E4AB2F5ED99EB85C7F1
FILE: 11 - Angelic Brain Cell.flac
Size: 23112179 Hash: 0596C235564D1292923BC6E64F679AEB Accuracy: -m0
Conclusion: CDDA 86%
Signature: B712A04B84C60672561EE800A94CFD7DE1A4B292
FILE: 10 - Nefertiti.flac
Size: 8471929 Hash: 7BEA1CF65795AA358565CB44239FFEE3 Accuracy: -m0
Conclusion: CDDA 87%
Signature: 430D69796EE7A131D801AECFA1A9329419DE50EC
FILE: 09 - Space Bubble.flac
Size: 14015396 Hash: 67A21079FF12C40AA7A998C280972E84 Accuracy: -m0
Conclusion: CDDA 85%
Signature: F07D39F577325601F2186B70EEB380F3C378289E
FILE: 08 - Fragment of a Whole.flac
Size: 18967826 Hash: 66FC9C754F88804C32E99B087E8FFA06 Accuracy: -m0
Conclusion: CDDA 87%
Signature: 4DF51DC3556CA9EE42295C6BA33AA779BF099669
FILE: 07 - Uncreated Light.flac
Size: 12811276 Hash: 1A9B51C7A9AF0B91719E7257D96A3EFB Accuracy: -m0
Conclusion: CDDA 99%
Signature: 92791D3EEC5E380E85EE3BFAA44FCC4E0649A633
FILE: 06 - Giant Steps.flac
Size: 3786825 Hash: 2839DACA62D331EC6CDDEE626F1DABD2 Accuracy: -m0
Conclusion: CDDA 100%
Signature: 626B0E5DB2667B8AD4FE43AA7CD2E6A3699FE5F2
FILE: 05 - Cosmic Dust.flac
Size: 11087915 Hash: C43407DCD2B8297BB03B4359E7508528 Accuracy: -m0
Conclusion: CDDA 94%
Signature: F49D17DAF92AF7CAF27F9E4BB12C879D680A0CEF
FILE: 04 - Blue to a Point.flac
Size: 19335008 Hash: CF65CBB870D1B36C112E5DC998D80B28 Accuracy: -m0
Conclusion: CDDA 87%
Signature: F31952508A3C3AEDE333DB8A8579F85B97643800
FILE: 03 - Surface to Curve.flac
Size: 12155559 Hash: 668CC3E08AB600D357662594673B6222 Accuracy: -m0
Conclusion: CDDA 99%
Signature: 3B00CD8D5ED05C75B63A7C7B8D8C2DE99EB66E03
FILE: 02 - Cosmic Shuffle.flac
Size: 23234144 Hash: 7E24A72AAE9008EC2596EE4EEED4CADE Accuracy: -m0
Conclusion: CDDA 87%
Signature: 973539A1F7CEA2B43041670F033815F948C17648
FILE: 01 - Piano Sutras.flac
Size: 18006878 Hash: 23AD57E4759EA26D9CEB8F36251A8E21 Accuracy: -m0
Conclusion: CDDA 85%
Signature: 07ECDFFB60A3874F391048FD5B27039969D947FC
Доп. информация: Recorded at Park West Studios in New York on February 20, 2013.
По всем вопросам пишите личное сообщение пользователю M0p94ok.
19:07
197
Нет комментариев. Ваш будет первым!