Вы используете незарегистрированную версию компонента "Вкладки"!

Поиск

(Free Jazz, Free Improvisation) Frode Gjerstad Trio (Øyvind Storesund, Paal Nilssen-Love) - Nothing is Forever - 2007, FLAC (tracks+.cue), lossless

(Free Jazz, Free Improvisation) Frode Gjerstad Trio (Øyvind Storesund, Paal Nilssen-Love) - Nothing is Forever - 2007, FLAC (tracks+.cue), lossless
Треклист:
Frode Gjerstad TrioNothing is Forever Жанр: Free Jazz, Free Improvisation
Страна-производитель диска: Belleville, Oslo, on May 16th 2007
Год издания: 2007
Издатель (лейбл): Circulasione Totale
Номер по каталогу: 10
Аудиокодек: FLAC (*.flac)
Тип рипа: tracks+.cue
Битрейт аудио: lossless
Продолжительность: 55:19
Источник (релизер): CD (спасибо gobi)
Наличие сканов в содержимом раздачи: нет
Треклист:
01. Nothing 7:56
02. Is Forever 20:25
03. Forever 12:26
04. Is Nothing 14:32
 
Лог создания рипа
X Lossless Decoder version 20120407 (140.0)
XLD extraction logfile from 2013-10-08 17:35:23 +0000
Frode Gjerstad Trio / Nothing is Forever
Used drive : OPTIARC DVD RW AD-5680H (revision 3AHF)
Ripper mode : XLD Secure Ripper
Disable audio cache : OK for the drive with a cache less than 1375KiB
Make use of C2 pointers : NO
Read offset correction : 48
Max retry count : 100
Gap status : Analyzed, Appended (except HTOA)
TOC of the extracted CD
Track | Start | Length | Start sector | End sector
---------------------------------------------------------
1 | 00:00:00 | 07:55:45 | 0 | 35669
2 | 07:55:45 | 20:24:58 | 35670 | 127527
3 | 28:20:28 | 12:26:22 | 127528 | 183499
4 | 40:46:50 | 14:32:30 | 183500 | 248929
AccurateRip Summary
Track 01 : OK (confidence 1)
Track 02 : OK (confidence 1)
Track 03 : OK (confidence 1)
Track 04 : OK (confidence 1)
->All tracks accurately ripped.
All Tracks
Album gain : -2.63 dB
Peak : 0.944092
Statistics
Read error : 0
Jitter error (maybe fixed) : 0
Retry sector count : 0
Damaged sector count : 0
Track 01
Filename : /XLD Rips/Frode Gjerstad Trio - Nothing Is Forever (2007) [FLAC]/01 - Nothing.flac
Pre-gap length : 00:02:00
Track gain : 2.11 dB
Peak : 0.944061
CRC32 hash (test run) : A77F7E9E
CRC32 hash : A77F7E9E
CRC32 hash (skip zero) : C659621E
AccurateRip signature : 8B945AAA
->Accurately ripped! (confidence 1)
Statistics
Read error : 0
Jitter error (maybe fixed) : 0
Retry sector count : 0
Damaged sector count : 0
Track 02
Filename : /XLD Rips/Frode Gjerstad Trio - Nothing Is Forever (2007) [FLAC]/02 - Is Forever.flac
Pre-gap length : 00:03:00
Track gain : -4.55 dB
Peak : 0.944092
CRC32 hash (test run) : D94653E9
CRC32 hash : D94653E9
CRC32 hash (skip zero) : F7519E9B
AccurateRip signature : 16E05C3C
->Accurately ripped! (confidence 1)
Statistics
Read error : 0
Jitter error (maybe fixed) : 0
Retry sector count : 0
Damaged sector count : 0
Track 03
Filename : /XLD Rips/Frode Gjerstad Trio - Nothing Is Forever (2007) [FLAC]/03 - Forever.flac
Pre-gap length : 00:03:00
Track gain : 0.62 dB
Peak : 0.944061
CRC32 hash (test run) : 2683012A
CRC32 hash : 2683012A
CRC32 hash (skip zero) : 99048620
AccurateRip signature : 93150269
->Accurately ripped! (confidence 1)
Statistics
Read error : 0
Jitter error (maybe fixed) : 0
Retry sector count : 0
Damaged sector count : 0
Track 04
Filename : /XLD Rips/Frode Gjerstad Trio - Nothing Is Forever (2007) [FLAC]/04 - Is Nothing.flac
Pre-gap length : 00:03:00
Track gain : 1.33 dB
Peak : 0.944061
CRC32 hash (test run) : 73B711BA
CRC32 hash : 73B711BA
CRC32 hash (skip zero) : 20ADBC9F
AccurateRip signature : B0C2F5D2
->Accurately ripped! (confidence 1)
Statistics
Read error : 0
Jitter error (maybe fixed) : 0
Retry sector count : 0
Damaged sector count : 0
No errors occurred
End of status report
 
Содержание индексной карты (.CUE)
TITLE "Nothing is Forever"
PERFORMER "Frode Gjerstad Trio"
REM GENRE "Jazz"
REM DATE "2007"
REM DISCID 300CF704
FILE "01 - Nothing.wav" WAVE
TRACK 01 AUDIO
TITLE "Nothing"
INDEX 01 00:00:00
TRACK 02 AUDIO
TITLE "Is Forever"
INDEX 00 07:52:45
FILE "02 - Is Forever.wav" WAVE
INDEX 01 00:00:00
TRACK 03 AUDIO
TITLE "Forever"
INDEX 00 20:21:58
FILE "03 - Forever.wav" WAVE
INDEX 01 00:00:00
TRACK 04 AUDIO
TITLE "Is Nothing"
INDEX 00 12:23:22
FILE "04 - Is Nothing.wav" WAVE
INDEX 01 00:00:00
 
Лог проверки качества
-----------------------
DON'T MODIFY THIS FILE
-----------------------
PERFORMER: auCDtect Task Manager, ver. 1.6.0 RC1 build 1.6.0.1
Copyright (c) 2008-2010 y-soft. All rights reserved
http://y-soft.org
ANALYZER: auCDtect: CD records authenticity detector, version 0.8.2
Copyright (c) 2004 Oleg Berngardt. All rights reserved.
Copyright (c) 2004 Alexander Djourik. All rights reserved.
FILE: 04 - Is Nothing.flac
Size: 64201944 Hash: 6F2CAF25BF965B4ADDA3A1157FFD8F95 Accuracy: -m0
Conclusion: CDDA 100%
Signature: 52BCEE8E01BE14FB814E371279690855CDABBE8A
FILE: 03 - Forever.flac
Size: 60798033 Hash: 581B463DACADE311A14B6751C9C78779 Accuracy: -m0
Conclusion: CDDA 100%
Signature: 2528BDEDABADDD7E6DBF5971249EA07245A3B44D
FILE: 02 - Is Forever.flac
Size: 119274179 Hash: CCEC6E6110C6D5C6735036F9A0128905 Accuracy: -m0
Conclusion: CDDA 99%
Signature: 2CF83B993AFE32261F5C5FD77706A990EA0D9F7D
FILE: 01 - Nothing.flac
Size: 40078729 Hash: 39CF8A6152C7B3559DB7EDCB47FCBD11 Accuracy: -m0
Conclusion: CDDA 100%
Signature: 58ACBFCE3D1E896701463154624C52F890D95AC2
Доп. информация: Recorded at Belleville, Oslo, on May 16th 2007.
 
Состав
Frode Gjerstad - Alto Saxophone, Clarinet [Eb And Bb]
Øyvind Storesund - Double Bass
Paal Nilssen-Love - Drums
Any questions -> support@pro-jazz.com. По всем вопросам пишите -> support@pro-jazz.com
19:07
168
Нет комментариев. Ваш будет первым!