Вы используете незарегистрированную версию компонента "Вкладки"!

Поиск

(Free Jazz, Modern Creative, Contemporary Jazz) Art Studio (Carlo Actis Dato, Claudio Lodati, Enrico Fazio, Fiorenzo Sordini, Silvia Pellegrino) - Trenta. Live in Torino - 2007, FLAC (image+.cue), lossless

(Free Jazz, Modern Creative, Contemporary Jazz) Art Studio (Carlo Actis Dato, Claudio Lodati, Enrico Fazio, Fiorenzo Sordini, Silvia Pellegrino) - Trenta. Live in Torino - 2007, FLAC (image+.cue), lossless
Треклист:
Art Studio / Trenta. Live in Torino
Жанр: Free Jazz, Modern Creative, Contemporary Jazz
Страна-производитель диска: Italy
Год издания: 2007
Издатель (лейбл): Splasc(h) Records
Номер по каталогу: CDH 995.2
Аудиокодек: FLAC (*.flac)
Тип рипа: image+.cue
Битрейт аудио: lossless
Продолжительность: 60:56
Источник (релизер): cd
Наличие сканов в содержимом раздачи: нет
Треклист:
1. flash 9:14
2. isole 10:07
3. silk 7:04
4. senza fiato 7:25
5. bossa di mafia 14:05
6. comandante marcos 12:58
 
Лог создания рипа
Exact Audio Copy V1.0 beta 2 from 29. April 2011
EAC extraction logfile from 16. October 2013, 10:15
artstudio / trenta live in torino
Used drive : Optiarc DVD RW AD-7170A Adapter: 0 ID: 0
Read mode : Secure
Utilize accurate stream : Yes
Defeat audio cache : Yes
Make use of C2 pointers : No
Read offset correction : 48
Overread into Lead-In and Lead-Out : No
Fill up missing offset samples with silence : Yes
Delete leading and trailing silent blocks : No
Null samples used in CRC calculations : Yes
Used interface : Native Win32 interface for Win NT & 2000
Used output format : User Defined Encoder
Selected bitrate : 320 kBit/s
Quality : High
Add ID3 tag : No
Command line compressor : C:\Program Files\Exact Audio Copy\Flac\flac.exe
Additional command line options : -V -8 -T "Date=%year%" -T "Genre=%genre%" %source%
TOC of the extracted CD
Track | Start | Length | Start sector | End sector
---------------------------------------------------------
1 | 0:00.00 | 9:14.67 | 0 | 41616
2 | 9:14.67 | 10:06.57 | 41617 | 87123
3 | 19:21.49 | 7:05.06 | 87124 | 119004
4 | 26:26.55 | 7:25.11 | 119005 | 152390
5 | 33:51.66 | 14:06.64 | 152391 | 215904
6 | 47:58.55 | 12:57.27 | 215905 | 274206
Range status and errors
Selected range
Filename K:\ЕАС\artstudio - trenta live in torino.wav
Peak level 98.8 %
Extraction speed 2.0 X
Range quality 100.0 %
Test CRC 3D3E63C2
Copy CRC 3D3E63C2
Copy OK
No errors occurred
AccurateRip summary
Track 1 not present in database
Track 2 not present in database
Track 3 not present in database
Track 4 not present in database
Track 5 not present in database
Track 6 not present in database
None of the tracks are present in the AccurateRip database
End of status report
==== Log checksum A661458AB5D022C45930A7022833BF32D8B153CBC7573A7897F6C79ED1BF6E10 ====
 
Содержание индексной карты (.CUE)
FILE "artstudio - trenta live in torino.flac" WAVE
TRACK 01 AUDIO
TITLE "flash"
PERFORMER "artstudio"
ISRC 000000000000
FLAGS DCP
INDEX 01 00:00:00
TRACK 02 AUDIO
TITLE "isole"
PERFORMER "artstudio"
ISRC 000000000000
FLAGS DCP
INDEX 01 09:14:67
TRACK 03 AUDIO
TITLE "silk"
PERFORMER "artstudio"
ISRC 000000000000
FLAGS DCP
INDEX 01 19:21:49
TRACK 04 AUDIO
TITLE "senza fiato"
PERFORMER "artstudio"
ISRC 000000000000
FLAGS DCP
INDEX 01 26:26:55
TRACK 05 AUDIO
TITLE "bossa di mafia"
PERFORMER "artstudio"
ISRC 000000000000
FLAGS DCP
INDEX 01 33:51:66
TRACK 06 AUDIO
TITLE "comandante marcos"
PERFORMER "artstudio"
ISRC 000000000000
FLAGS DCP
INDEX 01 47:58:55
Доп. информация: live recording at "Hiroshima Mon Amour" Torino - 2004
 
Состав
Carlo Actis Dato sax tenore , sax baritono , clarinetto basso
Claudio Lodati chitarra
Enrico Fazio basso
Fiorenzo Sordini batteria , vibrafono , percussioni
Silvia Pellegrino vocals
Any questions -> support@pro-jazz.com. По всем вопросам пишите -> support@pro-jazz.com
19:10
155
Нет комментариев. Ваш будет первым!