Вы используете незарегистрированную версию компонента "Вкладки"!

Поиск

(Free Jazz, Modern Creative) Ellen Christi Fiorenzo Sordini Quintet (Masahiko Kono, Carlo Actis Dato, Enrico Fazio) - A Piece of the Rock - 1992, FLAC (image+.cue), lossless

(Free Jazz, Modern Creative) Ellen Christi Fiorenzo Sordini Quintet (Masahiko Kono, Carlo Actis Dato, Enrico Fazio) - A Piece of the Rock - 1992, FLAC (image+.cue), lossless
Треклист:
Ellen Christi Fiorenzo Sordini Quintet / A Piece of the Rock
Жанр: Free Jazz, Modern Creative
Страна-производитель диска: Italy
Год издания: 1992
Издатель (лейбл): Splasc(h) Records
Номер по каталогу: CDH 393.2
Аудиокодек: FLAC (*.flac)
Тип рипа: image+.cue
Битрейт аудио: lossless
Продолжительность: 61:21
Источник (релизер): cd
Наличие сканов в содержимом раздачи: нет
Треклист:
1. A.A. 8:09
2. Strollin' 5:25
3. Thanks to Creator 5:00
4. Banana Split 6:43
5. Betrayal 6:39
6. Dudu 9:49
7. The Count 5:34
8. Raga 7:47
9. Bird With a Broken Wing 6:13
 
Лог создания рипа
Exact Audio Copy V1.0 beta 2 from 29. April 2011
EAC extraction logfile from 15. October 2013, 18:15
Ellen Christi / A Piece of the Rock
Used drive : Optiarc DVD RW AD-7170A Adapter: 0 ID: 0
Read mode : Secure
Utilize accurate stream : Yes
Defeat audio cache : Yes
Make use of C2 pointers : No
Read offset correction : 48
Overread into Lead-In and Lead-Out : No
Fill up missing offset samples with silence : Yes
Delete leading and trailing silent blocks : No
Null samples used in CRC calculations : Yes
Used interface : Native Win32 interface for Win NT & 2000
Used output format : User Defined Encoder
Selected bitrate : 320 kBit/s
Quality : High
Add ID3 tag : No
Command line compressor : C:\Program Files\Exact Audio Copy\Flac\flac.exe
Additional command line options : -V -8 -T "Date=%year%" -T "Genre=%genre%" %source%
TOC of the extracted CD
Track | Start | Length | Start sector | End sector
---------------------------------------------------------
1 | 0:00.33 | 8:09.00 | 33 | 36707
2 | 8:09.33 | 5:25.32 | 36708 | 61114
3 | 13:34.65 | 5:00.00 | 61115 | 83614
4 | 18:34.65 | 6:43.05 | 83615 | 113844
5 | 25:17.70 | 6:39.38 | 113845 | 143807
6 | 31:57.33 | 9:49.22 | 143808 | 188004
7 | 41:46.55 | 5:34.53 | 188005 | 213107
8 | 47:21.33 | 7:47.65 | 213108 | 248197
9 | 55:09.23 | 6:13.10 | 248198 | 276182
Range status and errors
Selected range
Filename K:\ЕАС\Ellen Christi - A Piece of the Rock.wav
Peak level 100.0 %
Extraction speed 2.0 X
Range quality 100.0 %
Test CRC 51E4E85E
Copy CRC 51E4E85E
Copy OK
No errors occurred
AccurateRip summary
Track 1 accurately ripped (confidence 1) [7C97CEB4] (AR v1)
Track 2 accurately ripped (confidence 1) [2792BCA4] (AR v1)
Track 3 accurately ripped (confidence 1) [CD9CBED6] (AR v1)
Track 4 accurately ripped (confidence 1) [6A6F59B2] (AR v1)
Track 5 accurately ripped (confidence 1) [305B594D] (AR v1)
Track 6 accurately ripped (confidence 1) [CF974B03] (AR v1)
Track 7 accurately ripped (confidence 1) [C0AB715F] (AR v1)
Track 8 accurately ripped (confidence 1) [62BA4085] (AR v1)
Track 9 accurately ripped (confidence 1) [74D3967E] (AR v1)
All tracks accurately ripped
End of status report
==== Log checksum F3EF7E99A9C5C821B3084D2416724E07EA2FEE04579E2EB0386B2846FB85B8A7 ====
 
Содержание индексной карты (.CUE)
REM GENRE Jazz
REM DATE 1992
REM DISCID 740E6209
REM COMMENT "ExactAudioCopy v1.0b2"
PERFORMER "Ellen Christi"
TITLE "A Piece of the Rock "
FILE "Ellen Christi - A Piece of the Rock.flac" WAVE
TRACK 01 AUDIO
TITLE "A.A."
PERFORMER "Ellen Christi"
INDEX 00 00:00:00
INDEX 01 00:00:33
TRACK 02 AUDIO
TITLE "Strollin'"
PERFORMER "Ellen Christi"
INDEX 01 08:09:33
TRACK 03 AUDIO
TITLE "Thanks to Creator"
PERFORMER "Ellen Christi"
INDEX 01 13:34:65
TRACK 04 AUDIO
TITLE "Banana Split"
PERFORMER "Ellen Christi"
INDEX 01 18:34:65
TRACK 05 AUDIO
TITLE "Betrayal"
PERFORMER "Ellen Christi"
INDEX 01 25:17:70
TRACK 06 AUDIO
TITLE "Dudu"
PERFORMER "Ellen Christi"
INDEX 01 31:57:33
TRACK 07 AUDIO
TITLE "The Count"
PERFORMER "Ellen Christi"
INDEX 01 41:46:55
TRACK 08 AUDIO
TITLE "Raga"
PERFORMER "Ellen Christi"
INDEX 01 47:21:33
TRACK 09 AUDIO
TITLE "Bird With a Broken Wing"
PERFORMER "Ellen Christi"
INDEX 01 55:09:23
 
Об альбоме (сборнике)
The pairing of vocalist Ellen Christi with the stellar Fiorenzo Sordini Quartet -- thus making it a quintet -- is as natural and right as rain. Their mutual insistence that jazz is a whole music that should not be subdivided into genres works well to their mutual advantage. With Sordini holding down the drum chair and Carlos Actos Dato on saxophones, as well as Japanese trombonist Masahiko Kono and bassist Enrico Fazio, this band already holds down all the corners of a very large jazz tent. Adding Christi's elegant sensual voice to the progressive creative process is like Noah building an ark to house what would be left of the world's creatures after the flood. Elements of jazz rock and funk ("A.A."), vanguard group improvisation ("Banana Split"), straight-ahead blues ("The Count"), and South African jazz melodics ("Dudu") are included. It's not that this group plays these musics as separate entities, but within the larger context of history, tradition, and, most important of all, innovation.
 
Состав
Ellen Christi vocals
Fiorenzo Sordini batteria , percussioni
Masahiko Kono trombone
Carlo Actis Dato sax tenore , clarinetto basso , sax baritono
Enrico Fazio basso
Any questions -> support@pro-jazz.com. По всем вопросам пишите -> support@pro-jazz.com
19:10
197
Нет комментариев. Ваш будет первым!