Вы используете незарегистрированную версию компонента "Вкладки"!

Поиск

(Free Jazz, Post Bop) Walt Dickerson - Sirone - Andrew Cyrille - Life Rays - 1997, FLAC (tracks+.cue), lossless

(Free Jazz, Post Bop) Walt Dickerson - Sirone - Andrew Cyrille - Life Rays - 1997, FLAC (tracks+.cue), lossless
Треклист:
Walt Dickerson - Sirone - Andrew Cyrille - Life Rays
Жанр: Free Jazz, Post Bop
Страна-производитель диска: Italy
Год издания: 1997
Издатель (лейбл): Soul Note Records
Номер по каталогу: SN 121 028-2
Аудиокодек: FLAC (*.flac)
Тип рипа: tracks+.cue
Битрейт аудио: lossless
Продолжительность: 45:45
Источник (релизер): собственный рип с оригинального диска.
Наличие сканов в содержимом раздачи: да
Треклист:
01. No Ordinary Man
02. Good Relationship
03. Life Rays
04. It Ain't Necessarily So
 
Лог создания рипа
Exact Audio Copy V1.0 beta 2 from 29. April 2011
EAC extraction logfile from 1. April 2012, 12:24
Walt Dickerson - Sirone - Andrew Cyrille / Life Rays
Used drive : TSSTcorpCDDVDW SH-S222A Adapter: 1 ID: 0
Read mode : Secure
Utilize accurate stream : Yes
Defeat audio cache : Yes
Make use of C2 pointers : No
Read offset correction : 6
Overread into Lead-In and Lead-Out : No
Fill up missing offset samples with silence : Yes
Delete leading and trailing silent blocks : No
Null samples used in CRC calculations : Yes
Used interface : Native Win32 interface for Win NT & 2000
Gap handling : Appended to previous track
Used output format : User Defined Encoder
Selected bitrate : 896 kBit/s
Quality : High
Add ID3 tag : No
Command line compressor : C:\Tool\CD\EAC10\FLAC\FLAC.EXE
Additional command line options : -6 -V -T "ARTIST=%artist%" -T "TITLE=%title%" -T "ALBUM=%albumtitle%" -T "DATE=%year%" -T "TRACKNUMBER=%tracknr%" -T "GENRE=%genre%" -T "COMMENT=%comment%" -T "BAND=%albuminterpret%" -T "COMPOSER=%composer%" %haslyrics%--ta
TOC of the extracted CD
Track | Start | Length | Start sector | End sector
---------------------------------------------------------
1 | 0:00.32 | 9:07.00 | 32 | 41056
2 | 9:07.32 | 13:42.00 | 41057 | 102706
3 | 22:49.32 | 4:46.10 | 102707 | 124166
4 | 27:35.42 | 18:10.65 | 124167 | 205981
Track 1
Filename C:\! UPLOAD\Walt Dickerson - Sirone - Andrew Cyrille - Life Rays (1997) [FLAC] {Soul Note}\01 - No Ordinary Man.wav
Pre-gap length 0:00:02.32
Peak level 80.7 %
Extraction speed 3.4 X
Track quality 100.0 %
Test CRC 46447F22
Copy CRC 46447F22
Accurately ripped (confidence 1) [4F0019C4] (AR v1)
Copy OK
Track 2
Filename C:\! UPLOAD\Walt Dickerson - Sirone - Andrew Cyrille - Life Rays (1997) [FLAC] {Soul Note}\02 - Good Relationship.wav
Peak level 90.6 %
Extraction speed 3.4 X
Track quality 99.9 %
Test CRC 00F35533
Copy CRC 00F35533
Accurately ripped (confidence 1) [F3BF4244] (AR v1)
Copy OK
Track 3
Filename C:\! UPLOAD\Walt Dickerson - Sirone - Andrew Cyrille - Life Rays (1997) [FLAC] {Soul Note}\03 - Life Rays.wav
Peak level 89.7 %
Extraction speed 2.9 X
Track quality 99.9 %
Test CRC A912DDA1
Copy CRC A912DDA1
Accurately ripped (confidence 1) [E7EEC8A1] (AR v1)
Copy OK
Track 4
Filename C:\! UPLOAD\Walt Dickerson - Sirone - Andrew Cyrille - Life Rays (1997) [FLAC] {Soul Note}\04 - It Ain't Necessarily So.wav
Peak level 90.6 %
Extraction speed 3.6 X
Track quality 100.0 %
Test CRC 4439508A
Copy CRC 4439508A
Accurately ripped (confidence 1) [AC10B482] (AR v1)
Copy OK
All tracks accurately ripped
No errors occurred
End of status report
==== Log checksum 7EB03D754D64E93C9754F89B1AE4DC0C89977190A40105EF8B747116A1BF0F7D ====
 
Содержание индексной карты (.CUE)
REM GENRE Jazz
REM DATE 1997
REM DISCID 330ABA04
REM COMMENT "ExactAudioCopy v1.0b2"
CATALOG 0000000000000
PERFORMER "Walt Dickerson - Sirone - Andrew Cyrille"
TITLE "Life Rays"
FILE "01 - No Ordinary Man.wav" WAVE
TRACK 01 AUDIO
TITLE "No Ordinary Man"
PERFORMER "Walt Dickerson - Sirone - Andrew Cyrille"
PREGAP 00:00:32
INDEX 01 00:00:00
FILE "02 - Good Relationship.wav" WAVE
TRACK 02 AUDIO
TITLE "Good Relationship"
PERFORMER "Walt Dickerson - Sirone - Andrew Cyrille"
INDEX 01 00:00:00
FILE "03 - Life Rays.wav" WAVE
TRACK 03 AUDIO
TITLE "Life Rays"
PERFORMER "Walt Dickerson - Sirone - Andrew Cyrille"
INDEX 01 00:00:00
FILE "04 - It Ain't Necessarily So.wav" WAVE
TRACK 04 AUDIO
TITLE "It Ain't Necessarily So"
PERFORMER "Walt Dickerson - Sirone - Andrew Cyrille"
INDEX 01 00:00:00
Доп. информация:
Recorded February 4 & 5, 1982 at Barigozzi Studios, Milano.
 
Об альбоме (The Penguin Guide to Jazz on CD - Ninth Edition)
In the dynamic company of Sirone and Cyrille, Walt emerges as a particular kind of modernist, a radical-conservative. Most of the tracks are quite long, but "Good Relationship" and a titanic version of " It Ain't Necessarily So" give the set epic dimensions. Dickerson seems to be striking harder than usual, Cyrille is faultless and the music has a strongly percussive quality. Sirone is magnificent whenever soloing, but rather anonymous in accompaniment.
 
Состав
Walt Dickerson - vibes
Sirone - bass
Andrew Cyrille - drums
Any questions -> support@pro-jazz.com. По всем вопросам пишите -> support@pro-jazz.com
23:42
239
Нет комментариев. Ваш будет первым!