Вы используете незарегистрированную версию компонента "Вкладки"!

Поиск

(Free Jazz) Jimmy Lyons - Andrew Cyrille - Something In Return - 1991, FLAC (tracks+.cue), lossless

Треклист:
Jimmy Lyons - Andrew Cyrille - Something In Return
Жанр: Free Jazz
Страна-производитель диска: Italy
Год издания: 1991
Издатель (лейбл): Black Saint Records
Номер по каталогу: BSR 120 125-2
Аудиокодек: FLAC (*.flac)
Тип рипа: tracks+.cue
Битрейт аудио: lossless
Продолжительность: 1:00:01
Источник (релизер): собственный рип с оригинального диска.
Наличие сканов в содержимом раздачи: да
Треклист:
01. Take The A Train 8:21
02. Something In Return 14:25
03. Lorry 6:19
04. J. L. 5:10
05. Nuba 9:46
07. Fragments I 15:41
 
Лог создания рипа
Exact Audio Copy V1.0 beta 2 from 29. April 2011
EAC extraction logfile from 1. April 2012, 18:04
Jimmy Lyons - Andrew Cyrille / Something In Return
Used drive : TSSTcorpCDDVDW SH-S222A Adapter: 1 ID: 0
Read mode : Secure
Utilize accurate stream : Yes
Defeat audio cache : Yes
Make use of C2 pointers : No
Read offset correction : 6
Overread into Lead-In and Lead-Out : No
Fill up missing offset samples with silence : Yes
Delete leading and trailing silent blocks : No
Null samples used in CRC calculations : Yes
Used interface : Native Win32 interface for Win NT & 2000
Gap handling : Appended to previous track
Used output format : User Defined Encoder
Selected bitrate : 896 kBit/s
Quality : High
Add ID3 tag : No
Command line compressor : C:\Tool\CD\EAC10\FLAC\FLAC.EXE
Additional command line options : -6 -V -T "ARTIST=%artist%" -T "TITLE=%title%" -T "ALBUM=%albumtitle%" -T "DATE=%year%" -T "TRACKNUMBER=%tracknr%" -T "GENRE=%genre%" -T "COMMENT=%comment%" -T "BAND=%albuminterpret%" -T "COMPOSER=%composer%" %haslyrics%--ta
TOC of the extracted CD
Track | Start | Length | Start sector | End sector
---------------------------------------------------------
1 | 0:00.33 | 8:25.00 | 33 | 37907
2 | 8:25.33 | 14:29.00 | 37908 | 103082
3 | 22:54.33 | 6:23.00 | 103083 | 131807
4 | 29:17.33 | 5:14.00 | 131808 | 155357
5 | 34:31.33 | 9:50.00 | 155358 | 199607
6 | 44:21.33 | 15:41.00 | 199608 | 270182
Track 1
Filename C:\! UPLOAD\Jimmy Lyons-Andrew Cyrille - Something In Return (1991) [FLAC] {Black Saint}\01 - Take The A Train.wav
Pre-gap length 0:00:02.33
Peak level 100.0 %
Extraction speed 3.2 X
Track quality 99.9 %
Test CRC 71F8A366
Copy CRC 71F8A366
Accurately ripped (confidence 2) [93CDD2CE] (AR v1)
Copy OK
Track 2
Filename C:\! UPLOAD\Jimmy Lyons-Andrew Cyrille - Something In Return (1991) [FLAC] {Black Saint}\02 - Something In Return.wav
Pre-gap length 0:00:04.00
Peak level 71.5 %
Extraction speed 3.5 X
Track quality 100.0 %
Test CRC 55E4C01A
Copy CRC 55E4C01A
Accurately ripped (confidence 2) [6901BF80] (AR v1)
Copy OK
Track 3
Filename C:\! UPLOAD\Jimmy Lyons-Andrew Cyrille - Something In Return (1991) [FLAC] {Black Saint}\03 - Lorry.wav
Pre-gap length 0:00:04.00
Peak level 67.2 %
Extraction speed 3.3 X
Track quality 100.0 %
Test CRC 0E47F9A7
Copy CRC 0E47F9A7
Accurately ripped (confidence 2) [2EDEEE61] (AR v1)
Copy OK
Track 4
Filename C:\! UPLOAD\Jimmy Lyons-Andrew Cyrille - Something In Return (1991) [FLAC] {Black Saint}\04 - J.L..wav
Pre-gap length 0:00:04.00
Peak level 69.0 %
Extraction speed 3.3 X
Track quality 100.0 %
Test CRC 675AF97E
Copy CRC 675AF97E
Accurately ripped (confidence 2) [A0D26041] (AR v1)
Copy OK
Track 5
Filename C:\! UPLOAD\Jimmy Lyons-Andrew Cyrille - Something In Return (1991) [FLAC] {Black Saint}\05 - Nuba.wav
Pre-gap length 0:00:04.00
Peak level 79.2 %
Extraction speed 3.5 X
Track quality 100.0 %
Test CRC 9293C571
Copy CRC 9293C571
Accurately ripped (confidence 2) [8EB96ACF] (AR v1)
Copy OK
Track 6
Filename C:\! UPLOAD\Jimmy Lyons-Andrew Cyrille - Something In Return (1991) [FLAC] {Black Saint}\06 - Fagments I.wav
Pre-gap length 0:00:04.00
Peak level 89.7 %
Extraction speed 3.6 X
Track quality 100.0 %
Test CRC 8A0AC578
Copy CRC 8A0AC578
Track not present in AccurateRip database
Copy OK
5 track(s) accurately ripped
1 track(s) not present in the AccurateRip database
Some tracks could not be verified as accurate
No errors occurred
End of status report
==== Log checksum C22D3FA1860CC8CEB1F354077F2C47719AAF3439B724027DBC8931BA82384566 ====
 
Содержание индексной карты (.CUE)
REM GENRE Jazz
REM DATE 1991
REM DISCID 520E1206
REM COMMENT "ExactAudioCopy v1.0b2"
CATALOG 0000000000000
PERFORMER "Jimmy Lyons - Andrew Cyrille"
TITLE "Something In Return"
FILE "01 - Take The A Train.wav" WAVE
TRACK 01 AUDIO
TITLE "Take The A Train"
PERFORMER "Jimmy Lyons - Andrew Cyrille"
PREGAP 00:00:33
INDEX 01 00:00:00
TRACK 02 AUDIO
TITLE "Something In Return"
PERFORMER "Jimmy Lyons - Andrew Cyrille"
INDEX 00 08:21:00
FILE "02 - Something In Return.wav" WAVE
INDEX 01 00:00:00
TRACK 03 AUDIO
TITLE "Lorry"
PERFORMER "Jimmy Lyons - Andrew Cyrille"
INDEX 00 14:25:00
FILE "03 - Lorry.wav" WAVE
INDEX 01 00:00:00
TRACK 04 AUDIO
TITLE "J.L."
PERFORMER "Jimmy Lyons - Andrew Cyrille"
INDEX 00 06:19:00
FILE "04 - J.L..wav" WAVE
INDEX 01 00:00:00
TRACK 05 AUDIO
TITLE "Nuba"
PERFORMER "Jimmy Lyons - Andrew Cyrille"
INDEX 00 05:10:00
FILE "05 - Nuba.wav" WAVE
INDEX 01 00:00:00
TRACK 06 AUDIO
TITLE "Fagments I"
PERFORMER "Jimmy Lyons - Andrew Cyrille"
INDEX 00 09:46:00
FILE "06 - Fagments I.wav" WAVE
INDEX 01 00:00:00
Доп. информация:
Recorded February 13, 1981 at Soundscape, New York City
 
Об альбоме (сборнике)
Exiting duo between Jimmy Lyons and Andrew Cyrille in the beginning of 80s.
 
Состав
Jimmy Lyons - alto saxophone
Andrew Cyrille - percussion
Any questions -> support@pro-jazz.com. По всем вопросам пишите -> support@pro-jazz.com
23:41
263
Нет комментариев. Ваш будет первым!