Поиск

(Free Jazz) Leroy Jenkins - The Legend of Ai Glatson - 1993, FLAC (tracks+.cue), lossless

(Free Jazz) Leroy Jenkins - The Legend of Ai Glatson - 1993, FLAC (tracks+.cue), lossless
Треклист:
Leroy Jenkins - The Legend of Ai Glatson
Жанр: Free Jazz
Страна-производитель диска: Italy
Год издания: 1993
Издатель (лейбл): Black Saint Records
Номер по каталогу: BSR 120 022-2
Аудиокодек: FLAC (*.flac)
Тип рипа: tracks+.cue
Битрейт аудио: lossless
Продолжительность: 37:23
Источник (релизер): собственный рип с оригинального диска.
Наличие сканов в содержимом раздачи: да
Треклист:
01. Ai Glatson (10:33)
02. Brax Stone (8:53)
03. Albert Ayler (his life was too short) (4:06)
04. Tuesday child (5:22)
05. What goes around comes around (8:28)
 
Лог создания рипа
Exact Audio Copy V1.0 beta 2 from 29. April 2011
EAC extraction logfile from 1. April 2012, 19:21
Leroy Jenkins / The Legend of Ai Glatson
Used drive : TSSTcorpCDDVDW SH-S222A Adapter: 1 ID: 0
Read mode : Secure
Utilize accurate stream : Yes
Defeat audio cache : Yes
Make use of C2 pointers : No
Read offset correction : 6
Overread into Lead-In and Lead-Out : No
Fill up missing offset samples with silence : Yes
Delete leading and trailing silent blocks : No
Null samples used in CRC calculations : Yes
Used interface : Native Win32 interface for Win NT & 2000
Gap handling : Appended to previous track
Used output format : User Defined Encoder
Selected bitrate : 896 kBit/s
Quality : High
Add ID3 tag : No
Command line compressor : C:\Tool\CD\EAC10\FLAC\FLAC.EXE
Additional command line options : -6 -V -T "ARTIST=%artist%" -T "TITLE=%title%" -T "ALBUM=%albumtitle%" -T "DATE=%year%" -T "TRACKNUMBER=%tracknr%" -T "GENRE=%genre%" -T "COMMENT=%comment%" -T "BAND=%albuminterpret%" -T "COMPOSER=%composer%" %haslyrics%--ta
TOC of the extracted CD
Track | Start | Length | Start sector | End sector
---------------------------------------------------------
1 | 0:00.32 | 10:33.05 | 32 | 47511
2 | 10:33.37 | 8:53.13 | 47512 | 87499
3 | 19:26.50 | 4:08.00 | 87500 | 106099
4 | 23:34.50 | 5:23.25 | 106100 | 130349
5 | 28:58.00 | 8:27.00 | 130350 | 168374
Track 1
Filename C:\! UPLOAD\Jimmy Lyons-Andrew Cyrille - Something In Return (1991) [FLAC] {Black Saint}\01 - Ai Glatson.wav
Pre-gap length 0:00:02.32
Peak level 88.1 %
Extraction speed 2.0 X
Track quality 100.0 %
Test CRC EAB71640
Copy CRC EAB71640
Accurately ripped (confidence 1) [8CADBDE6] (AR v1)
Copy OK
Track 2
Filename C:\! UPLOAD\Jimmy Lyons-Andrew Cyrille - Something In Return (1991) [FLAC] {Black Saint}\02 - Brax Stone.wav
Peak level 78.0 %
Extraction speed 2.2 X
Track quality 99.9 %
Test CRC 4F26C1CF
Copy CRC 4F26C1CF
Accurately ripped (confidence 1) [313D963E] (AR v1)
Copy OK
Track 3
Filename C:\! UPLOAD\Jimmy Lyons-Andrew Cyrille - Something In Return (1991) [FLAC] {Black Saint}\03 - Albert Ayler.wav
Peak level 61.6 %
Extraction speed 2.0 X
Track quality 99.9 %
Test CRC 38856CB5
Copy CRC 38856CB5
Accurately ripped (confidence 1) [9DD3B3EC] (AR v1)
Copy OK
Track 4
Filename C:\! UPLOAD\Jimmy Lyons-Andrew Cyrille - Something In Return (1991) [FLAC] {Black Saint}\04 - Tuesday Child.wav
Peak level 63.0 %
Extraction speed 2.3 X
Track quality 99.9 %
Test CRC 67CD1B0C
Copy CRC 67CD1B0C
Accurately ripped (confidence 1) [57F6F5C2] (AR v1)
Copy OK
Track 5
Filename C:\! UPLOAD\Jimmy Lyons-Andrew Cyrille - Something In Return (1991) [FLAC] {Black Saint}\05 - What Goes Around Comes Around.wav
Peak level 88.6 %
Extraction speed 2.9 X
Track quality 100.0 %
Test CRC A6BE0D89
Copy CRC A6BE0D89
Accurately ripped (confidence 1) [6885FDF9] (AR v1)
Copy OK
All tracks accurately ripped
No errors occurred
End of status report
==== Log checksum 8291D30927FC050FDB4ABDA5F5F231DA717A51E4D42042BEF5FC8AD995F41441 ====
 
Содержание индексной карты (.CUE)
REM GENRE Jazz
REM DATE 1991
REM DISCID 3808C505
REM COMMENT "ExactAudioCopy v1.0b2"
PERFORMER "Leroy Jenkins"
TITLE "The Legend of Ai Glatson"
FILE "01 - Ai Glatson.wav" WAVE
TRACK 01 AUDIO
TITLE "Ai Glatson"
PERFORMER "Leroy Jenkins"
PREGAP 00:00:32
INDEX 01 00:00:00
FILE "02 - Brax Stone.wav" WAVE
TRACK 02 AUDIO
TITLE "Brax Stone"
PERFORMER "Leroy Jenkins"
INDEX 01 00:00:00
FILE "03 - Albert Ayler.wav" WAVE
TRACK 03 AUDIO
TITLE "Albert Ayler"
PERFORMER "Leroy Jenkins"
INDEX 01 00:00:00
FILE "04 - Tuesday Child.wav" WAVE
TRACK 04 AUDIO
TITLE "Tuesday Child"
PERFORMER "Leroy Jenkins"
INDEX 01 00:00:00
FILE "05 - What Goes Around Comes Around.wav" WAVE
TRACK 05 AUDIO
TITLE "What Goes Around Comes Around"
PERFORMER "Leroy Jenkins"
INDEX 01 00:00:00
Доп. информация:
Recorded in July 1978, at GRS Studios, Milano
 
Об альбоме (by Ron Wynn)
Excellent session by dynamic violinist Leroy Jenkins, once part of the wonderful avant-garde trio The Revolutionary Ensemble. Jenkins cut this session in 1978, shortly after the trio's demise, and it's loaded with great violin solos, as well as some unusual, intriguing arrangements and compositions.
 
Состав
Leroy Jenkins - violin
Anthony Davis - piano
Andrew Cyrille - percussion
Download available for power users only.
22:40
516
Нет комментариев. Ваш будет первым!