Вы используете незарегистрированную версию компонента "Вкладки"!

Поиск

(Free Jazz) Andrew Cyrille - Special People - 1995, FLAC (tracks+.cue), lossless

(Free Jazz) Andrew Cyrille - Special People - 1995, FLAC (tracks+.cue), lossless
Треклист:
Andrew Cyrille - Special People
Жанр: Free Jazz
Страна-производитель диска: Italy
Год издания: 1995
Издатель (лейбл): Soul Note Records
Номер по каталогу: SN 121 012-2
Аудиокодек: FLAC (*.flac)
Тип рипа: tracks+.cue
Битрейт аудио: lossless
Продолжительность: 36:55
Источник (релизер): собственный рип с оригинального диска.
Наличие сканов в содержимом раздачи: да
Треклист:
01. A Girl Named Rainbow 10:00
02. High Priest 7:42
03. Fortified Nucleolus 5:08
04. Baby Man 6:34
05. Special People 7:00
 
Лог создания рипа
Exact Audio Copy V1.0 beta 2 from 29. April 2011
EAC extraction logfile from 1. April 2012, 13:10
Andrew Cyrille / Special People
Used drive : TSSTcorpCDDVDW SH-S222A Adapter: 1 ID: 0
Read mode : Secure
Utilize accurate stream : Yes
Defeat audio cache : Yes
Make use of C2 pointers : No
Read offset correction : 6
Overread into Lead-In and Lead-Out : No
Fill up missing offset samples with silence : Yes
Delete leading and trailing silent blocks : No
Null samples used in CRC calculations : Yes
Used interface : Native Win32 interface for Win NT & 2000
Gap handling : Appended to previous track
Used output format : User Defined Encoder
Selected bitrate : 896 kBit/s
Quality : High
Add ID3 tag : No
Command line compressor : C:\Tool\CD\EAC10\FLAC\FLAC.EXE
Additional command line options : -6 -V -T "ARTIST=%artist%" -T "TITLE=%title%" -T "ALBUM=%albumtitle%" -T "DATE=%year%" -T "TRACKNUMBER=%tracknr%" -T "GENRE=%genre%" -T "COMMENT=%comment%" -T "BAND=%albuminterpret%" -T "COMPOSER=%composer%" %haslyrics%--ta
TOC of the extracted CD
Track | Start | Length | Start sector | End sector
---------------------------------------------------------
1 | 0:00.33 | 10:10.12 | 33 | 45794
2 | 10:10.45 | 7:48.25 | 45795 | 80919
3 | 17:58.70 | 5:12.00 | 80920 | 104319
4 | 23:10.70 | 6:40.50 | 104320 | 134369
5 | 29:51.45 | 7:05.63 | 134370 | 166307
Track 1
Filename C:\! UPLOAD\Andrew Cyrille - Special People (1995) [FLAC] {Soul Note}\01 - A Girl Named Rainbow.wav
Pre-gap length 0:00:02.33
Peak level 92.9 %
Extraction speed 2.0 X
Track quality 100.0 %
Test CRC AB0EADCC
Copy CRC AB0EADCC
Accurately ripped (confidence 2) [928B29B8] (AR v1)
Copy OK
Track 2
Filename C:\! UPLOAD\Andrew Cyrille - Special People (1995) [FLAC] {Soul Note}\02 - High Priest.wav
Peak level 100.0 %
Extraction speed 2.3 X
Track quality 100.0 %
Test CRC D7375583
Copy CRC D7375583
Accurately ripped (confidence 2) [821E8D19] (AR v1)
Copy OK
Track 3
Filename C:\! UPLOAD\Andrew Cyrille - Special People (1995) [FLAC] {Soul Note}\03 - Fortified Nucleolus.wav
Peak level 97.7 %
Extraction speed 2.5 X
Track quality 100.0 %
Test CRC ACF2D55B
Copy CRC ACF2D55B
Accurately ripped (confidence 2) [D1C872B7] (AR v1)
Copy OK
Track 4
Filename C:\! UPLOAD\Andrew Cyrille - Special People (1995) [FLAC] {Soul Note}\04 - Baby Man.wav
Peak level 100.0 %
Extraction speed 2.7 X
Track quality 100.0 %
Test CRC A5E75043
Copy CRC A5E75043
Accurately ripped (confidence 2) [2D175E5B] (AR v1)
Copy OK
Track 5
Filename C:\! UPLOAD\Andrew Cyrille - Special People (1995) [FLAC] {Soul Note}\05 - Special People.wav
Peak level 100.0 %
Extraction speed 2.8 X
Track quality 100.0 %
Test CRC 013139F1
Copy CRC 013139F1
Accurately ripped (confidence 2) [59637F0A] (AR v1)
Copy OK
All tracks accurately ripped
No errors occurred
End of status report
==== Log checksum 366469F222B1027C38572EB7F226FBED259567C023518D75E6C23DCE02D5A0A5 ====
 
Содержание индексной карты (.CUE)
REM GENRE Jazz
REM DATE 1995
REM DISCID 3708A905
REM COMMENT "ExactAudioCopy v1.0b2"
PERFORMER "Andrew Cyrille"
TITLE "Special People"
FILE "01 - A Girl Named Rainbow.wav" WAVE
TRACK 01 AUDIO
TITLE "A Girl Named Rainbow"
PERFORMER "Andrew Cyrille"
PREGAP 00:00:33
INDEX 01 00:00:00
FILE "02 - High Priest.wav" WAVE
TRACK 02 AUDIO
TITLE "High Priest"
PERFORMER "Andrew Cyrille"
INDEX 01 00:00:00
FILE "03 - Fortified Nucleolus.wav" WAVE
TRACK 03 AUDIO
TITLE "Fortified Nucleolus"
PERFORMER "Andrew Cyrille"
INDEX 01 00:00:00
FILE "04 - Baby Man.wav" WAVE
TRACK 04 AUDIO
TITLE "Baby Man"
PERFORMER "Andrew Cyrille"
INDEX 01 00:00:00
FILE "05 - Special People.wav" WAVE
TRACK 05 AUDIO
TITLE "Special People"
PERFORMER "Andrew Cyrille"
INDEX 01 00:00:00
Доп. информация:
Recorded October 21 & 22, 1980 at Barigozzi Studios, Milano.
 
Об альбоме (сборнике)
Maybe this is the last album of Andrew Cyrille & Maono.
 
Состав
David S. Ware - tenor saxophone
Ted Daniels - trumpet
Nick De Geronimo - bass
Ted Daniels - flugelhorn
Andrew Cyrille - percussion
Any questions -> support@pro-jazz.com. По всем вопросам пишите -> support@pro-jazz.com
23:40
252
Нет комментариев. Ваш будет первым!