Вы используете незарегистрированную версию компонента "Вкладки"!

Поиск

(Contemporary Jazz) Andrew Cyrille Trio - Good To Go, with A Tribute To Bu - 1997, FLAC (tracks+.cue), lossless

(Contemporary Jazz) Andrew Cyrille Trio - Good To Go, with A Tribute To Bu - 1997, FLAC (tracks+.cue), lossless
Треклист:
Andrew Cyrille Trio - Good To Go, with A Tribute To Bu
Жанр: Contemporary Jazz
Страна-производитель диска: Italy
Год издания: 1997
Издатель (лейбл): Soul Note Records
Номер по каталогу: SN 121 292-2
Аудиокодек: FLAC (*.flac)
Тип рипа: tracks+.cue
Битрейт аудио: lossless
Продолжительность: 1:07:39
Источник (релизер): собственный рип с оригинального диска.
Наличие сканов в содержимом раздачи: да
Треклист:
01. A Tribute To Bu (Take 1) 5:32
02. Oblong 6:17
03. Enter From The East 8:34
04. Inch Worm 7:25
05. Nicodemus 4:01
06. Aftermath 7:09
07. Hit It 3:45
08. Olmecas (Dedicated to Ivan Van Sertima) 7:43
09. Good To Go 4:43
10. Fate 6:42
11. A Tribute To Bu (Take 2) 5:50
 
Лог создания рипа
Exact Audio Copy V1.0 beta 2 from 29. April 2011
EAC extraction logfile from 1. April 2012, 14:49
Andrew Cyrille Trio / Good to go, with a tribute to Bu
Used drive : TSSTcorpCDDVDW SH-S222A Adapter: 1 ID: 0
Read mode : Secure
Utilize accurate stream : Yes
Defeat audio cache : Yes
Make use of C2 pointers : No
Read offset correction : 6
Overread into Lead-In and Lead-Out : No
Fill up missing offset samples with silence : Yes
Delete leading and trailing silent blocks : No
Null samples used in CRC calculations : Yes
Used interface : Native Win32 interface for Win NT & 2000
Gap handling : Appended to previous track
Used output format : User Defined Encoder
Selected bitrate : 896 kBit/s
Quality : High
Add ID3 tag : No
Command line compressor : C:\Tool\CD\EAC10\FLAC\FLAC.EXE
Additional command line options : -6 -V -T "ARTIST=%artist%" -T "TITLE=%title%" -T "ALBUM=%albumtitle%" -T "DATE=%year%" -T "TRACKNUMBER=%tracknr%" -T "GENRE=%genre%" -T "COMMENT=%comment%" -T "BAND=%albuminterpret%" -T "COMPOSER=%composer%" %haslyrics%--ta
TOC of the extracted CD
Track | Start | Length | Start sector | End sector
---------------------------------------------------------
1 | 0:00.00 | 5:30.07 | 0 | 24756
2 | 5:30.07 | 6:17.57 | 24757 | 53088
3 | 11:47.64 | 8:34.31 | 53089 | 91669
4 | 20:22.20 | 7:25.15 | 91670 | 125059
5 | 27:47.35 | 4:01.17 | 125060 | 143151
6 | 31:48.52 | 7:09.25 | 143152 | 175351
7 | 38:58.02 | 3:45.15 | 175352 | 192241
8 | 42:43.17 | 7:43.50 | 192242 | 227016
9 | 50:26.67 | 4:43.15 | 227017 | 248256
10 | 55:10.07 | 6:42.38 | 248257 | 278444
11 | 61:52.45 | 5:50.57 | 278445 | 304751
Track 1
Filename C:\! UPLOAD\Andrew Cyrille Trio - Good To Go (1997) [FLAC] {Soul Note}\01 - A tribute to Bu (Take 1).wav
Pre-gap length 0:00:02.00
Peak level 100.0 %
Extraction speed 3.2 X
Track quality 100.0 %
Test CRC D5409F1F
Copy CRC D5409F1F
Accurately ripped (confidence 4) [72CEB877] (AR v1)
Copy OK
Track 2
Filename C:\! UPLOAD\Andrew Cyrille Trio - Good To Go (1997) [FLAC] {Soul Note}\02 - Oblong.wav
Peak level 100.0 %
Extraction speed 3.3 X
Track quality 100.0 %
Test CRC ED01AF74
Copy CRC ED01AF74
Accurately ripped (confidence 4) [454803C1] (AR v1)
Copy OK
Track 3
Filename C:\! UPLOAD\Andrew Cyrille Trio - Good To Go (1997) [FLAC] {Soul Note}\03 - Enter from the east.wav
Peak level 97.9 %
Extraction speed 3.4 X
Track quality 100.0 %
Test CRC BC7C80A1
Copy CRC BC7C80A1
Accurately ripped (confidence 4) [8CB56C65] (AR v1)
Copy OK
Track 4
Filename C:\! UPLOAD\Andrew Cyrille Trio - Good To Go (1997) [FLAC] {Soul Note}\04 - Inch worm.wav
Peak level 100.0 %
Extraction speed 3.1 X
Track quality 99.9 %
Test CRC 15191DB2
Copy CRC 15191DB2
Accurately ripped (confidence 4) [E1DD85A1] (AR v1)
Copy OK
Track 5
Filename C:\! UPLOAD\Andrew Cyrille Trio - Good To Go (1997) [FLAC] {Soul Note}\05 - Nicodemus.wav
Peak level 100.0 %
Extraction speed 3.2 X
Track quality 100.0 %
Test CRC 50A9A993
Copy CRC 50A9A993
Accurately ripped (confidence 4) [4B38C778] (AR v1)
Copy OK
Track 6
Filename C:\! UPLOAD\Andrew Cyrille Trio - Good To Go (1997) [FLAC] {Soul Note}\06 - Aftermath.wav
Peak level 86.7 %
Extraction speed 3.4 X
Track quality 100.0 %
Test CRC 6A4AD313
Copy CRC 6A4AD313
Accurately ripped (confidence 4) [8834CCD0] (AR v1)
Copy OK
Track 7
Filename C:\! UPLOAD\Andrew Cyrille Trio - Good To Go (1997) [FLAC] {Soul Note}\07 - Hit it.wav
Peak level 100.0 %
Extraction speed 3.1 X
Track quality 100.0 %
Test CRC D95480E0
Copy CRC D95480E0
Accurately ripped (confidence 4) [92B6425B] (AR v1)
Copy OK
Track 8
Filename C:\! UPLOAD\Andrew Cyrille Trio - Good To Go (1997) [FLAC] {Soul Note}\08 - Olmecas.wav
Peak level 100.0 %
Extraction speed 3.4 X
Track quality 100.0 %
Test CRC 800DFABD
Copy CRC 800DFABD
Accurately ripped (confidence 4) [143EA1AE] (AR v1)
Copy OK
Track 9
Filename C:\! UPLOAD\Andrew Cyrille Trio - Good To Go (1997) [FLAC] {Soul Note}\09 - Good to go.wav
Peak level 100.0 %
Extraction speed 2.8 X
Track quality 99.9 %
Test CRC D6597CE7
Copy CRC D6597CE7
Accurately ripped (confidence 4) [1BEBF944] (AR v1)
Copy OK
Track 10
Filename C:\! UPLOAD\Andrew Cyrille Trio - Good To Go (1997) [FLAC] {Soul Note}\10 - Fate.wav
Peak level 100.0 %
Extraction speed 3.3 X
Track quality 100.0 %
Test CRC 6316461C
Copy CRC 6316461C
Accurately ripped (confidence 4) [4EF27882] (AR v1)
Copy OK
Track 11
Filename C:\! UPLOAD\Andrew Cyrille Trio - Good To Go (1997) [FLAC] {Soul Note}\11 - A tribute to Bu (Take 2).wav
Peak level 100.0 %
Extraction speed 3.2 X
Track quality 100.0 %
Test CRC F923B0AE
Copy CRC F923B0AE
Accurately ripped (confidence 3) [107AB368] (AR v1)
Copy OK
All tracks accurately ripped
No errors occurred
End of status report
---- CUETools DB Plugin V2.1.2
[CTDB TOCID: HnNk5KUJnvoTdwBjWMKZ4VQxBRY-] disk not present in database, Submit result: HnNk5KUJnvoTdwBjWMKZ4VQxBRY- has been uploaded
==== Log checksum 2477A0A44D64D2D4BAC4E1B65345109B0F4AF6FAA591EA2E33539516472C4BFB ====
 
Содержание индексной карты (.CUE)
REM GENRE Jazz
REM DATE 1997
REM DISCID 840FDF0B
REM COMMENT "ExactAudioCopy v1.0b2"
CATALOG 0000000000000
PERFORMER "Andrew Cyrille Trio"
TITLE "Good to go, with a tribute to Bu"
FILE "01 - A tribute to Bu (Take 1).wav" WAVE
TRACK 01 AUDIO
TITLE "A tribute to Bu (Take 1)"
PERFORMER "Andrew Cyrille Trio"
INDEX 01 00:00:00
FILE "02 - Oblong.wav" WAVE
TRACK 02 AUDIO
TITLE "Oblong"
PERFORMER "Andrew Cyrille Trio"
INDEX 01 00:00:00
FILE "03 - Enter from the east.wav" WAVE
TRACK 03 AUDIO
TITLE "Enter from the east"
PERFORMER "Andrew Cyrille Trio"
INDEX 01 00:00:00
FILE "04 - Inch worm.wav" WAVE
TRACK 04 AUDIO
TITLE "Inch worm"
PERFORMER "Andrew Cyrille Trio"
INDEX 01 00:00:00
FILE "05 - Nicodemus.wav" WAVE
TRACK 05 AUDIO
TITLE "Nicodemus"
PERFORMER "Andrew Cyrille Trio"
INDEX 01 00:00:00
FILE "06 - Aftermath.wav" WAVE
TRACK 06 AUDIO
TITLE "Aftermath"
PERFORMER "Andrew Cyrille Trio"
INDEX 01 00:00:00
FILE "07 - Hit it.wav" WAVE
TRACK 07 AUDIO
TITLE "Hit it"
PERFORMER "Andrew Cyrille Trio"
INDEX 01 00:00:00
FILE "08 - Olmecas.wav" WAVE
TRACK 08 AUDIO
TITLE "Olmecas"
PERFORMER "Andrew Cyrille Trio"
INDEX 01 00:00:00
FILE "09 - Good to go.wav" WAVE
TRACK 09 AUDIO
TITLE "Good to go"
PERFORMER "Andrew Cyrille Trio"
INDEX 01 00:00:00
FILE "10 - Fate.wav" WAVE
TRACK 10 AUDIO
TITLE "Fate"
PERFORMER "Andrew Cyrille Trio"
INDEX 01 00:00:00
FILE "11 - A tribute to Bu (Take 2).wav" WAVE
TRACK 11 AUDIO
TITLE "A tribute to Bu (Take 2)"
PERFORMER "Andrew Cyrille Trio"
INDEX 01 00:00:00
Доп. информация:
Recorded on 17 & 18 October 1995 at Mu Rec Studio, Milano, Italy.
 
Об альбоме (by Scott Yanow)
This is an intriguing set, featuring the combination of drummer Andrew Cyrille, flutist James Newton and bassist Lisle Atkinson, a different kind of power trio. The music ranges from fairly free flights to "Inch Worm" (arranged by Sheila Jordan) and two versions of "A Tribute to Bu" (for Art Blakey). Due to the variety of the material (mostly originals) and the consistent brilliance of Newton, this CD is recommended to fans of advanced jazz.
 
Состав
Andrew Cyrille - drums
James Newton - flute
Lisle Atkinson - bass
Any questions -> support@pro-jazz.com. По всем вопросам пишите -> support@pro-jazz.com
23:42
306
Нет комментариев. Ваш будет первым!