Вы используете незарегистрированную версию компонента "Вкладки"!

Поиск

(Free Jazz, Post-Bop) The Joe Fonda & Michael Jefry Stevens Quintet - Parallel Lines - 1997, FLAC (tracks+.cue), lossless

(Free Jazz, Post-Bop) The Joe Fonda & Michael Jefry Stevens Quintet - Parallel Lines - 1997, FLAC (tracks+.cue), lossless
Треклист:
The Joe Fonda & Michael Jefry Stevens Quintet / Parallel Lines
Жанр: Free Jazz, Post-Bop
Страна-производитель диска: US
Год издания: 1997
Издатель (лейбл): Music & Arts
Номер по каталогу: CD-979
Страна: US
Аудиокодек: FLAC (*.flac)
Тип рипа: tracks+.cue
Битрейт аудио: lossless
Продолжительность: 58:51
Источник (релизер): свой фирменный диск
Наличие сканов в содержимом раздачи:
Треклист:
1 Parallel Lines 8:28
2 What Do You Think 5:30
3 Waltz 10:19
4 Quindutrilo 5:39
5 Quintalogue I 6:14
6 Quintalogue II 2:43
7 The Wild Thing 1:30
8 The Sadness Of The Madness 10:18
9 Birdtalk 7:40
 
Лог создания рипа
Exact Audio Copy V1.0 beta 3 from 29. August 2011
EAC extraction logfile from 29. August 2013, 20:57
The Joe Fonda - Michael Jefry Stevens Quintet / Parallel Lines
Used drive : TSSTcorpCDDVDW SH-222AB Adapter: 1 ID: 0
Read mode : Secure
Utilize accurate stream : Yes
Defeat audio cache : Yes
Make use of C2 pointers : No
Read offset correction : 6
Overread into Lead-In and Lead-Out : No
Fill up missing offset samples with silence : Yes
Delete leading and trailing silent blocks : No
Null samples used in CRC calculations : Yes
Used interface : Installed external ASPI interface
Gap handling : Appended to previous track
Used output format : User Defined Encoder
Selected bitrate : 896 kBit/s
Quality : High
Add ID3 tag : No
Command line compressor : C:\Program Files\Exact Audio Copy\FLAC\FLAC.EXE
Additional command line options : -6 -V -T "ARTIST=%artist%" -T "TITLE=%title%" -T "ALBUM=%albumtitle%" -T "DATE=%year%" -T "TRACKNUMBER=%tracknr%" -T "GENRE=%genre%" -T "COMMENT=%comment%" -T "BAND=%albuminterpret%" -T "COMPOSER=%composer%" %haslyrics%--tag-from-file=LYRICS="%lyricsfile%"%haslyrics% -T "DISCNUMBER=%cdnumber%" -T "TOTALDISCS=%totalcds%" -T "TOTALTRACKS=%numtracks%" %hascover%--picture="%coverfile%"%hascover% %source% -o %dest%
TOC of the extracted CD
Track | Start | Length | Start sector | End sector
---------------------------------------------------------
1 | 0:00.00 | 8:31.05 | 0 | 38329
2 | 8:31.05 | 5:32.57 | 38330 | 63286
3 | 14:03.62 | 10:20.53 | 63287 | 109839
4 | 24:24.40 | 5:43.27 | 109840 | 135591
5 | 30:07.67 | 6:16.58 | 135592 | 163849
6 | 36:24.50 | 2:45.57 | 163850 | 176281
7 | 39:10.32 | 1:41.55 | 176282 | 183911
8 | 40:52.12 | 10:19.22 | 183912 | 230358
9 | 51:11.34 | 7:39.46 | 230359 | 264829
Track 1
Filename D:\zzz\01 - Parallel Lines.wav
Pre-gap length 0:00:02.00
Peak level 100.0 %
Extraction speed 2.9 X
Track quality 100.0 %
Test CRC C2CBA477
Copy CRC C2CBA477
Accurately ripped (confidence 1) [F3656795] (AR v1)
Copy OK
Track 2
Filename D:\zzz\02 - What Do You Think.wav
Pre-gap length 0:00:02.38
Peak level 77.8 %
Extraction speed 2.8 X
Track quality 100.0 %
Test CRC A39FC06F
Copy CRC A39FC06F
Accurately ripped (confidence 1) [CE906642] (AR v1)
Copy OK
Track 3
Filename D:\zzz\03 - Waltz.wav
Pre-gap length 0:00:02.15
Peak level 100.0 %
Extraction speed 3.0 X
Track quality 100.0 %
Test CRC 132649CE
Copy CRC 132649CE
Accurately ripped (confidence 1) [AB5B42C1] (AR v1)
Copy OK
Track 4
Filename D:\zzz\04 - Quindutrilo.wav
Pre-gap length 0:00:01.08
Peak level 80.2 %
Extraction speed 2.8 X
Track quality 100.0 %
Test CRC C888B8C4
Copy CRC C888B8C4
Accurately ripped (confidence 1) [B547F4AD] (AR v1)
Copy OK
Track 5
Filename D:\zzz\05 - Quintalogue I.wav
Pre-gap length 0:00:03.00
Peak level 93.0 %
Extraction speed 2.9 X
Track quality 100.0 %
Test CRC E90FC9EF
Copy CRC E90FC9EF
Accurately ripped (confidence 1) [18D3897D] (AR v1)
Copy OK
Track 6
Filename D:\zzz\06 - Quintalogue II.wav
Pre-gap length 0:00:02.58
Peak level 73.6 %
Extraction speed 2.6 X
Track quality 100.0 %
Test CRC D78DA806
Copy CRC D78DA806
Accurately ripped (confidence 1) [C1393313] (AR v1)
Copy OK
Track 7
Filename D:\zzz\07 - The Wild Thing.wav
Pre-gap length 0:00:02.50
Peak level 79.6 %
Extraction speed 2.2 X
Track quality 100.0 %
Test CRC A1B6E91D
Copy CRC A1B6E91D
Accurately ripped (confidence 1) [3254C08B] (AR v1)
Copy OK
Track 8
Filename D:\zzz\08 - The Sadness Of The Madness.wav
Pre-gap length 0:00:02.20
Peak level 72.2 %
Extraction speed 3.0 X
Track quality 100.0 %
Test CRC EC365A02
Copy CRC EC365A02
Accurately ripped (confidence 1) [5AA9426A] (AR v1)
Copy OK
Track 9
Filename D:\zzz\09 - Birdtalk.wav
Pre-gap length 0:00:01.27
Peak level 100.0 %
Extraction speed 2.9 X
Track quality 100.0 %
Test CRC 337D4DF3
Copy CRC 337D4DF3
Accurately ripped (confidence 1) [7011157D] (AR v1)
Copy OK
All tracks accurately ripped
No errors occurred
End of status report
==== Log checksum FAD78474D1DB5341D82CD07B0F5C1AF1FB1C07073F458398F0CC77003B5EEED3 ====
 
Содержание индексной карты (.CUE)
REM GENRE "Free Jazz"
REM DATE 1997
REM DISCID 780DCB09
REM COMMENT "ExactAudioCopy v1.0b3"
PERFORMER "The Joe Fonda - Michael Jefry Stevens Quintet"
TITLE "Parallel Lines"
FILE "01 - Parallel Lines.wav" WAVE
TRACK 01 AUDIO
TITLE "Parallel Lines"
PERFORMER "The Joe Fonda - Michael Jefry Stevens Quintet"
INDEX 01 00:00:00
TRACK 02 AUDIO
TITLE "What Do You Think"
PERFORMER "The Joe Fonda - Michael Jefry Stevens Quintet"
INDEX 00 08:28:42
FILE "02 - What Do You Think.wav" WAVE
INDEX 01 00:00:00
TRACK 03 AUDIO
TITLE "Waltz"
PERFORMER "The Joe Fonda - Michael Jefry Stevens Quintet"
INDEX 00 05:30:42
FILE "03 - Waltz.wav" WAVE
INDEX 01 00:00:00
TRACK 04 AUDIO
TITLE "Quindutrilo"
PERFORMER "The Joe Fonda - Michael Jefry Stevens Quintet"
INDEX 00 10:19:45
FILE "04 - Quindutrilo.wav" WAVE
INDEX 01 00:00:00
TRACK 05 AUDIO
TITLE "Quintalogue I"
PERFORMER "The Joe Fonda - Michael Jefry Stevens Quintet"
INDEX 00 05:40:27
FILE "05 - Quintalogue I.wav" WAVE
INDEX 01 00:00:00
TRACK 06 AUDIO
TITLE "Quintalogue II"
PERFORMER "The Joe Fonda - Michael Jefry Stevens Quintet"
INDEX 00 06:14:00
FILE "06 - Quintalogue II.wav" WAVE
INDEX 01 00:00:00
TRACK 07 AUDIO
TITLE "The Wild Thing"
PERFORMER "The Joe Fonda - Michael Jefry Stevens Quintet"
INDEX 00 02:43:07
FILE "07 - The Wild Thing.wav" WAVE
INDEX 01 00:00:00
TRACK 08 AUDIO
TITLE "The Sadness Of The Madness"
PERFORMER "The Joe Fonda - Michael Jefry Stevens Quintet"
INDEX 00 01:39:35
FILE "08 - The Sadness Of The Madness.wav" WAVE
INDEX 01 00:00:00
TRACK 09 AUDIO
TITLE "Birdtalk"
PERFORMER "The Joe Fonda - Michael Jefry Stevens Quintet"
INDEX 00 10:17:70
FILE "09 - Birdtalk.wav" WAVE
INDEX 01 00:00:00
 
Лог проверки качества
d:\>d:\aucdtect -d/-m0 d:\zzz\*.wav
auCDtect: CD records authenticity detector, version 0.8.2
Copyright (c) 2004 Oleg Berngardt. All rights reserved.
Copyright (c) 2004 Alexander Djourik. All rights reserved.
------------------------------------------------------------
Processing file: [01. Parallel Lines.wav]
------------------------------------------------------------
This track looks like CDDA with probability 100%
------------------------------------------------------------
Processing file: [02. What Do You Think.wav]
------------------------------------------------------------
This track looks like CDDA with probability 100%
------------------------------------------------------------
Processing file: [03. Waltz.wav]
------------------------------------------------------------
This track looks like CDDA with probability 100%
------------------------------------------------------------
Processing file: [04. Quindutrilo.wav]
------------------------------------------------------------
This track looks like CDDA with probability 99%
------------------------------------------------------------
Processing file: [05. Quintalogue I.wav]
------------------------------------------------------------
This track looks like CDDA with probability 100%
------------------------------------------------------------
Processing file: [06. Quintalogue II.wav]
------------------------------------------------------------
This track looks like CDDA with probability 100%
------------------------------------------------------------
Processing file: [07. The Wild Thing.wav]
------------------------------------------------------------
This track looks like CDDA with probability 100%
------------------------------------------------------------
Processing file: [08. The Sadness Of The Madness.wav]
------------------------------------------------------------
This track looks like CDDA with probability 100%
------------------------------------------------------------
Processing file: [09. Birdtalk.wav]
------------------------------------------------------------
This track looks like CDDA with probability 100%
------------------------------------------------------------
Final Conclusion:
------------------------------------------------------------
These tracks looks like CDDA with probability 100%
Доп. информация:
 
AMG Review
The adventurous music on this set, all group originals, is played by five talented if underrated musicians. The performances are mostly fairly concise (other than two numbers that are over ten minutes apiece) with the musicians getting to the point quickly. The improvisations are fairly free (particularly the colorful ones by trumpeter Herb Robertson and saxophonist Mark Whitecage) while relating to each piece's original mood. The rhythm section is spontaneous yet often quite tight and the communication between the five players is always impressive. Although a bit esoteric in spots, this CD grows in interest with each listen.
 
Состав
Double Bass – Joe Fonda
Drums – Harvey Sorgen
Piano – Michael Jefry Stevens
Saxophone – Mark Whitecage
Trumpet – Herb Robertson
По всем вопросам пишите личное сообщение пользователю M0p94ok.
17:44
219
Нет комментариев. Ваш будет первым!