Вы используете незарегистрированную версию компонента "Вкладки"!

Поиск

(Free Jazz, Post-Bop) The Joe Fonda & Michael Jefry Stevens Group - The Wish - 1995, FLAC (tracks+.cue), lossless

(Free Jazz, Post-Bop) The Joe Fonda & Michael Jefry Stevens Group - The Wish - 1995, FLAC (tracks+.cue), lossless
Треклист:
The Joe Fonda & Michael Jefry Stevens Group / The Wish
Жанр: Free Jazz, Post-Bop
Страна-производитель диска: US
Год издания: 1995
Издатель (лейбл): Music & Arts
Номер по каталогу: CD-916
Страна: US
Аудиокодек: FLAC (*.flac)
Тип рипа: tracks+.cue
Битрейт аудио: lossless
Продолжительность: 64:59
Источник (релизер): свой фирменный диск
Наличие сканов в содержимом раздачи:
Треклист:
1 The Wish 4:39
2 Soon To Know 8:47
3 Round Trip 9:42
4 Mischief 8:11
5 The River Po 13:57
6 Song For Rich 6:07
7 In The Whitecage 13:27
 
Лог создания рипа
Exact Audio Copy V1.0 beta 3 from 29. August 2011
EAC extraction logfile from 29. August 2013, 22:04
The Joe Fonda/Michael Jefry Stevens Group / The Wish
Used drive : PIONEER DVD-RW DVR-115D Adapter: 0 ID: 0
Read mode : Secure
Utilize accurate stream : Yes
Defeat audio cache : Yes
Make use of C2 pointers : No
Read offset correction : 48
Overread into Lead-In and Lead-Out : No
Fill up missing offset samples with silence : Yes
Delete leading and trailing silent blocks : No
Null samples used in CRC calculations : Yes
Used interface : Installed external ASPI interface
Gap handling : Appended to previous track
Used output format : User Defined Encoder
Selected bitrate : 896 kBit/s
Quality : High
Add ID3 tag : No
Command line compressor : C:\Program Files\Exact Audio Copy\FLAC\FLAC.EXE
Additional command line options : -6 -V -T "ARTIST=%artist%" -T "TITLE=%title%" -T "ALBUM=%albumtitle%" -T "DATE=%year%" -T "TRACKNUMBER=%tracknr%" -T "GENRE=%genre%" -T "COMMENT=%comment%" -T "BAND=%albuminterpret%" -T "COMPOSER=%composer%" %haslyrics%--tag-from-file=LYRICS="%lyricsfile%"%haslyrics% -T "DISCNUMBER=%cdnumber%" -T "TOTALDISCS=%totalcds%" -T "TOTALTRACKS=%numtracks%" %hascover%--picture="%coverfile%"%hascover% %source% -o %dest%
TOC of the extracted CD
Track | Start | Length | Start sector | End sector
---------------------------------------------------------
1 | 0:00.00 | 4:40.42 | 0 | 21041
2 | 4:40.42 | 8:48.28 | 21042 | 60669
3 | 13:28.70 | 9:44.02 | 60670 | 104471
4 | 23:12.72 | 8:13.08 | 104472 | 141454
5 | 31:26.05 | 13:56.70 | 141455 | 204224
6 | 45:23.00 | 6:09.27 | 204225 | 231926
7 | 51:32.27 | 13:27.13 | 231927 | 292464
Track 1
Filename D:\zzz\01 - The Wish.wav
Pre-gap length 0:00:02.00
Peak level 100.0 %
Extraction speed 4.8 X
Track quality 100.0 %
Test CRC DFEF77EB
Copy CRC DFEF77EB
Accurately ripped (confidence 2) [2A1558A0] (AR v1)
Copy OK
Track 2
Filename D:\zzz\02 - Soon To Know.wav
Pre-gap length 0:00:01.42
Peak level 99.9 %
Extraction speed 5.8 X
Track quality 100.0 %
Test CRC 510DFA75
Copy CRC 510DFA75
Accurately ripped (confidence 2) [17A8041C] (AR v1)
Copy OK
Track 3
Filename D:\zzz\03 - Round Trip.wav
Pre-gap length 0:00:01.28
Peak level 100.0 %
Extraction speed 6.7 X
Track quality 100.0 %
Test CRC D0FB61D8
Copy CRC D0FB61D8
Accurately ripped (confidence 2) [1A2AB4CE] (AR v1)
Copy OK
Track 4
Filename D:\zzz\04 - Mischief.wav
Pre-gap length 0:00:01.47
Peak level 100.0 %
Extraction speed 7.4 X
Track quality 100.0 %
Test CRC 971FCED4
Copy CRC 971FCED4
Accurately ripped (confidence 2) [4F8D2169] (AR v1)
Copy OK
Track 5
Filename D:\zzz\05 - The River Po.wav
Pre-gap length 0:00:02.03
Peak level 99.0 %
Extraction speed 8.3 X
Track quality 100.0 %
Test CRC 425DC7DB
Copy CRC 425DC7DB
Accurately ripped (confidence 2) [AD709924] (AR v1)
Copy OK
Track 6
Filename D:\zzz\06 - Song For Rich.wav
Peak level 98.8 %
Extraction speed 8.5 X
Track quality 100.0 %
Test CRC 3499527C
Copy CRC 3499527C
Accurately ripped (confidence 2) [44D846CD] (AR v1)
Copy OK
Track 7
Filename D:\zzz\07 - In The Whitecage.wav
Pre-gap length 0:00:02.40
Peak level 100.0 %
Extraction speed 9.5 X
Track quality 100.0 %
Test CRC AB6D840D
Copy CRC AB6D840D
Accurately ripped (confidence 2) [75014697] (AR v1)
Copy OK
All tracks accurately ripped
No errors occurred
End of status report
==== Log checksum 38CD11125DFF810CFDEADE8C4353D8432746A64FC9FE89CC7187103FA573A8C0 ====
 
Содержание индексной карты (.CUE)
REM GENRE "Free Jazz"
REM DATE 1995
REM DISCID 610F3B07
REM COMMENT "ExactAudioCopy v1.0b3"
PERFORMER "The Joe Fonda/Michael Jefry Stevens Group"
TITLE "The Wish"
FILE "01 - The Wish.wav" WAVE
TRACK 01 AUDIO
TITLE "The Wish"
PERFORMER "The Joe Fonda/Michael Jefry Stevens Group"
INDEX 01 00:00:00
TRACK 02 AUDIO
TITLE "Soon To Know"
PERFORMER "The Joe Fonda/Michael Jefry Stevens Group"
INDEX 00 04:39:00
FILE "02 - Soon To Know.wav" WAVE
INDEX 01 00:00:00
TRACK 03 AUDIO
TITLE "Round Trip"
PERFORMER "The Joe Fonda/Michael Jefry Stevens Group"
INDEX 00 08:47:00
FILE "03 - Round Trip.wav" WAVE
INDEX 01 00:00:00
TRACK 04 AUDIO
TITLE "Mischief"
PERFORMER "The Joe Fonda/Michael Jefry Stevens Group"
INDEX 00 09:42:30
FILE "04 - Mischief.wav" WAVE
INDEX 01 00:00:00
TRACK 05 AUDIO
TITLE "The River Po"
PERFORMER "The Joe Fonda/Michael Jefry Stevens Group"
INDEX 00 08:11:05
FILE "05 - The River Po.wav" WAVE
INDEX 01 00:00:00
FILE "06 - Song For Rich.wav" WAVE
TRACK 06 AUDIO
TITLE "Song For Rich"
PERFORMER "The Joe Fonda/Michael Jefry Stevens Group"
INDEX 01 00:00:00
TRACK 07 AUDIO
TITLE "In The Whitecage"
PERFORMER "The Joe Fonda/Michael Jefry Stevens Group"
INDEX 00 06:06:62
FILE "07 - In The Whitecage.wav" WAVE
INDEX 01 00:00:00
 
Лог проверки качества
d:\>d:\aucdtect -d/-m0 d:\zzz\*.wav
auCDtect: CD records authenticity detector, version 0.8.2
Copyright (c) 2004 Oleg Berngardt. All rights reserved.
Copyright (c) 2004 Alexander Djourik. All rights reserved.
------------------------------------------------------------
Processing file: [01. The Wish.wav]
------------------------------------------------------------
This track looks like CDDA with probability 100%
------------------------------------------------------------
Processing file: [02. Soon To Know.wav]
------------------------------------------------------------
This track looks like CDDA with probability 100%
------------------------------------------------------------
Processing file: [03. Round Trip.wav]
------------------------------------------------------------
This track looks like CDDA with probability 100%
------------------------------------------------------------
Processing file: [04. Mischief.wav]
------------------------------------------------------------
This track looks like CDDA with probability 100%
------------------------------------------------------------
Processing file: [05. The River Po.wav]
------------------------------------------------------------
This track looks like CDDA with probability 100%
------------------------------------------------------------
Processing file: [06. Song For Rich.wav]
------------------------------------------------------------
This track looks like CDDA with probability 99%
------------------------------------------------------------
Processing file: [07. In The Whitecage.wav]
------------------------------------------------------------
This track looks like CDDA with probability 100%
------------------------------------------------------------
Final Conclusion:
------------------------------------------------------------
These tracks looks like CDDA with probability 100%
Доп. информация:
 
Album Info & Jazz Times Review
Recorded 8/15/95 at Dreamland Recording Studios, Woodstock, NY
Here's a comely date that again illustrates the fact that good jazz can come from disparate sources, in this case a label new to these ears out of Berkeley, CA. The leaders are bassist Fonda and pianist Stevens, and they are joined by the under-recognized talents of trumpeter Herb Robertson and saxman Mark Whitecage, along with drummer Harvey Songen, and the title track vocal of Laura Arbuckle. The blue extraction "Mischief," a Fonda original with a shuffling affinity, is one of the date's highlights.
 
Состав
Alto Saxophone, Soprano Saxophone – Mark Whitecage
Contrabass – Joe Fonda
Drums – Harvey Sorgen
Piano – Michael Jefry Stevens
Trumpet, Flugelhorn – Herb Robertson
Any questions -> support@pro-jazz.com. По всем вопросам пишите -> support@pro-jazz.com
17:44
183
Нет комментариев. Ваш будет первым!